  0
SECTION
  2
HEADER
  9
$ACADVER
  1
AC1021
  9
$ACADMAINTVER
 70
     1
  9
$DWGCODEPAGE
  3
ANSI_936
  9
$LASTSAVEDBY
  1
Andy
  9
$INSBASE
 10
0.0
 20
0.0
 30
0.0
  9
$EXTMIN
 10
666.8859291501854
 20
-38.3756611272001
 30
0.0
  9
$EXTMAX
 10
2533.195525624569
 20
945.8302295103292
 30
0.0
  9
$LIMMIN
 10
0.0
 20
0.0
  9
$LIMMAX
 10
12.0
 20
9.0
  9
$ORTHOMODE
 70
     1
  9
$REGENMODE
 70
     1
  9
$FILLMODE
 70
     1
  9
$QTEXTMODE
 70
     0
  9
$MIRRTEXT
 70
     1
  9
$LTSCALE
 40
1.0
  9
$ATTMODE
 70
     1
  9
$TEXTSIZE
 40
0.2
  9
$TRACEWID
 40
0.05
  9
$TEXTSTYLE
  7
Standard
  9
$CLAYER
  8
0
  9
$CELTYPE
  6
ByLayer
  9
$CECOLOR
 62
   256
  9
$CELTSCALE
 40
1.0
  9
$DISPSILH
 70
     0
  9
$DIMSCALE
 40
1.0
  9
$DIMASZ
 40
0.18
  9
$DIMEXO
 40
0.0625
  9
$DIMDLI
 40
0.38
  9
$DIMRND
 40
0.0
  9
$DIMDLE
 40
0.0
  9
$DIMEXE
 40
0.18
  9
$DIMTP
 40
0.0
  9
$DIMTM
 40
0.0
  9
$DIMTXT
 40
10.0
  9
$DIMCEN
 40
0.09
  9
$DIMTSZ
 40
0.0
  9
$DIMTOL
 70
     0
  9
$DIMLIM
 70
     0
  9
$DIMTIH
 70
     1
  9
$DIMTOH
 70
     1
  9
$DIMSE1
 70
     0
  9
$DIMSE2
 70
     0
  9
$DIMTAD
 70
     0
  9
$DIMZIN
 70
     0
  9
$DIMBLK
  1

  9
$DIMASO
 70
     1
  9
$DIMSHO
 70
     1
  9
$DIMPOST
  1

  9
$DIMAPOST
  1

  9
$DIMALT
 70
     0
  9
$DIMALTD
 70
     2
  9
$DIMALTF
 40
25.4
  9
$DIMLFAC
 40
1.0
  9
$DIMTOFL
 70
     0
  9
$DIMTVP
 40
0.0
  9
$DIMTIX
 70
     0
  9
$DIMSOXD
 70
     0
  9
$DIMSAH
 70
     0
  9
$DIMBLK1
  1

  9
$DIMBLK2
  1

  9
$DIMSTYLE
  2
Standard
  9
$DIMCLRD
 70
     0
  9
$DIMCLRE
 70
     0
  9
$DIMCLRT
 70
     0
  9
$DIMTFAC
 40
1.0
  9
$DIMGAP
 40
0.09
  9
$DIMJUST
 70
     0
  9
$DIMSD1
 70
     0
  9
$DIMSD2
 70
     0
  9
$DIMTOLJ
 70
     1
  9
$DIMTZIN
 70
     0
  9
$DIMALTZ
 70
     0
  9
$DIMALTTZ
 70
     0
  9
$DIMUPT
 70
     0
  9
$DIMDEC
 70
     1
  9
$DIMTDEC
 70
     1
  9
$DIMALTU
 70
     2
  9
$DIMALTTD
 70
     2
  9
$DIMTXSTY
  7
Standard
  9
$DIMAUNIT
 70
     0
  9
$DIMADEC
 70
     0
  9
$DIMALTRND
 40
0.0
  9
$DIMAZIN
 70
     0
  9
$DIMDSEP
 70
    46
  9
$DIMATFIT
 70
     3
  9
$DIMFRAC
 70
     0
  9
$DIMLDRBLK
  1

  9
$DIMLUNIT
 70
     2
  9
$DIMLWD
 70
    -2
  9
$DIMLWE
 70
    -2
  9
$DIMTMOVE
 70
     0
  9
$DIMFXL
 40
1.0
  9
$DIMFXLON
 70
     0
  9
$DIMJOGANG
 40
0.7853981633974483
  9
$DIMTFILL
 70
     0
  9
$DIMTFILLCLR
 70
     0
  9
$DIMARCSYM
 70
     0
  9
$DIMLTYPE
  6

  9
$DIMLTEX1
  6

  9
$DIMLTEX2
  6

  9
$LUNITS
 70
     2
  9
$LUPREC
 70
     4
  9
$SKETCHINC
 40
0.1
  9
$FILLETRAD
 40
0.0
  9
$AUNITS
 70
     0
  9
$AUPREC
 70
     0
  9
$MENU
  1
.
  9
$ELEVATION
 40
0.0
  9
$PELEVATION
 40
0.0
  9
$THICKNESS
 40
0.0
  9
$LIMCHECK
 70
     0
  9
$CHAMFERA
 40
0.5
  9
$CHAMFERB
 40
0.5
  9
$CHAMFERC
 40
1.0
  9
$CHAMFERD
 40
0.0
  9
$SKPOLY
 70
     0
  9
$TDCREATE
 40
2458016.475815949
  9
$TDUCREATE
 40
2458016.142482616
  9
$TDUPDATE
 40
2458016.496017280
  9
$TDUUPDATE
 40
2458016.162683946
  9
$TDINDWG
 40
0.0115351042
  9
$TDUSRTIMER
 40
0.0115351042
  9
$USRTIMER
 70
     1
  9
$ANGBASE
 50
0.0
  9
$ANGDIR
 70
     0
  9
$PDMODE
 70
     0
  9
$PDSIZE
 40
0.0
  9
$PLINEWID
 40
0.0
  9
$SPLFRAME
 70
     0
  9
$SPLINETYPE
 70
     6
  9
$SPLINESEGS
 70
     8
  9
$HANDSEED
  5
ACC
  9
$SURFTAB1
 70
     6
  9
$SURFTAB2
 70
     6
  9
$SURFTYPE
 70
     6
  9
$SURFU
 70
     6
  9
$SURFV
 70
     6
  9
$UCSBASE
  2

  9
$UCSNAME
  2

  9
$UCSORG
 10
0.0
 20
0.0
 30
0.0
  9
$UCSXDIR
 10
1.0
 20
0.0
 30
0.0
  9
$UCSYDIR
 10
0.0
 20
1.0
 30
0.0
  9
$UCSORTHOREF
  2

  9
$UCSORTHOVIEW
 70
     0
  9
$UCSORGTOP
 10
0.0
 20
0.0
 30
0.0
  9
$UCSORGBOTTOM
 10
0.0
 20
0.0
 30
0.0
  9
$UCSORGLEFT
 10
0.0
 20
0.0
 30
0.0
  9
$UCSORGRIGHT
 10
0.0
 20
0.0
 30
0.0
  9
$UCSORGFRONT
 10
0.0
 20
0.0
 30
0.0
  9
$UCSORGBACK
 10
0.0
 20
0.0
 30
0.0
  9
$PUCSBASE
  2

  9
$PUCSNAME
  2

  9
$PUCSORG
 10
0.0
 20
0.0
 30
0.0
  9
$PUCSXDIR
 10
1.0
 20
0.0
 30
0.0
  9
$PUCSYDIR
 10
0.0
 20
1.0
 30
0.0
  9
$PUCSORTHOREF
  2

  9
$PUCSORTHOVIEW
 70
     0
  9
$PUCSORGTOP
 10
0.0
 20
0.0
 30
0.0
  9
$PUCSORGBOTTOM
 10
0.0
 20
0.0
 30
0.0
  9
$PUCSORGLEFT
 10
0.0
 20
0.0
 30
0.0
  9
$PUCSORGRIGHT
 10
0.0
 20
0.0
 30
0.0
  9
$PUCSORGFRONT
 10
0.0
 20
0.0
 30
0.0
  9
$PUCSORGBACK
 10
0.0
 20
0.0
 30
0.0
  9
$USERI1
 70
     0
  9
$USERI2
 70
     0
  9
$USERI3
 70
     0
  9
$USERI4
 70
     0
  9
$USERI5
 70
     0
  9
$USERR1
 40
0.0
  9
$USERR2
 40
0.0
  9
$USERR3
 40
0.0
  9
$USERR4
 40
0.0
  9
$USERR5
 40
0.0
  9
$WORLDVIEW
 70
     1
  9
$SHADEDGE
 70
     3
  9
$SHADEDIF
 70
    70
  9
$TILEMODE
 70
     1
  9
$MAXACTVP
 70
    64
  9
$PINSBASE
 10
0.0
 20
0.0
 30
0.0
  9
$PLIMCHECK
 70
     0
  9
$PEXTMIN
 10
1.000000000000000E+20
 20
1.000000000000000E+20
 30
1.000000000000000E+20
  9
$PEXTMAX
 10
-1.000000000000000E+20
 20
-1.000000000000000E+20
 30
-1.000000000000000E+20
  9
$PLIMMIN
 10
0.0
 20
0.0
  9
$PLIMMAX
 10
12.0
 20
9.0
  9
$UNITMODE
 70
     0
  9
$VISRETAIN
 70
     1
  9
$PLINEGEN
 70
     0
  9
$PSLTSCALE
 70
     1
  9
$TREEDEPTH
 70
  3020
  9
$CMLSTYLE
  2
Standard
  9
$CMLJUST
 70
     0
  9
$CMLSCALE
 40
1.0
  9
$PROXYGRAPHICS
 70
     1
  9
$MEASUREMENT
 70
     0
  9
$CELWEIGHT
370
    -1
  9
$ENDCAPS
280
     0
  9
$JOINSTYLE
280
     0
  9
$LWDISPLAY
290
     1
  9
$INSUNITS
 70
     1
  9
$HYPERLINKBASE
  1

  9
$STYLESHEET
  1

  9
$XEDIT
290
     1
  9
$CEPSNTYPE
380
     0
  9
$PSTYLEMODE
290
     1
  9
$FINGERPRINTGUID
  2
{6FF21C49-7D41-4EC5-B026-6B3D5FD68042}
  9
$VERSIONGUID
  2
{5A0BC6BD-E1EE-4B4F-B9A0-F28256603B44}
  9
$EXTNAMES
290
     1
  9
$PSVPSCALE
 40
0.0
  9
$OLESTARTUP
290
     0
  9
$SORTENTS
280
   127
  9
$INDEXCTL
280
     0
  9
$HIDETEXT
280
     1
  9
$XCLIPFRAME
290
     0
  9
$HALOGAP
280
     0
  9
$OBSCOLOR
 70
   257
  9
$OBSLTYPE
280
     0
  9
$INTERSECTIONDISPLAY
280
     0
  9
$INTERSECTIONCOLOR
 70
   257
  9
$DIMASSOC
280
     2
  9
$PROJECTNAME
  1

  9
$CAMERADISPLAY
290
     0
  9
$LENSLENGTH
 40
50.0
  9
$CAMERAHEIGHT
 40
0.0
  9
$STEPSPERSEC
 40
2.0
  9
$STEPSIZE
 40
6.0
  9
$3DDWFPREC
 40
2.0
  9
$PSOLWIDTH
 40
0.25
  9
$PSOLHEIGHT
 40
4.0
  9
$LOFTANG1
 40
1.570796326794897
  9
$LOFTANG2
 40
1.570796326794897
  9
$LOFTMAG1
 40
0.0
  9
$LOFTMAG2
 40
0.0
  9
$LOFTPARAM
 70
     7
  9
$LOFTNORMALS
280
     1
  9
$LATITUDE
 40
37.795
  9
$LONGITUDE
 40
-122.394
  9
$NORTHDIRECTION
 40
0.0
  9
$TIMEZONE
 70
 -8000
  9
$LIGHTGLYPHDISPLAY
280
     1
  9
$TILEMODELIGHTSYNCH
280
     1
  9
$CMATERIAL
347
3C
  9
$SOLIDHIST
280
     1
  9
$SHOWHIST
280
     1
  9
$DWFFRAME
280
     2
  9
$DGNFRAME
280
     2
  9
$REALWORLDSCALE
290
     1
  9
$INTERFERECOLOR
 62
   256
  9
$INTERFEREOBJVS
345
33
  9
$INTERFEREVPVS
346
30
  9
$CSHADOW
280
     0
  9
$SHADOWPLANELOCATION
 40
0.0
  0
ENDSEC
  0
SECTION
  2
CLASSES
  0
CLASS
  1
ACDBDICTIONARYWDFLT
  2
AcDbDictionaryWithDefault
  3
ObjectDBX Classes
 90
        0
 91
        1
280
     0
281
     0
  0
CLASS
  1
VISUALSTYLE
  2
AcDbVisualStyle
  3
ObjectDBX Classes
 90
     4095
 91
       16
280
     0
281
     0
  0
CLASS
  1
MATERIAL
  2
AcDbMaterial
  3
ObjectDBX Classes
 90
     1024
 91
        3
280
     0
281
     0
  0
CLASS
  1
SUN
  2
AcDbSun
  3
SCENEOE
 90
     1024
 91
        1
280
     0
281
     0
  0
CLASS
  1
TABLESTYLE
  2
AcDbTableStyle
  3
ObjectDBX Classes
 90
     4095
 91
        1
280
     0
281
     0
  0
CLASS
  1
DICTIONARYVAR
  2
AcDbDictionaryVar
  3
ObjectDBX Classes
 90
        0
 91
        1
280
     0
281
     0
  0
CLASS
  1
DIMASSOC
  2
AcDbDimAssoc
  3
"AcDbDimAssoc|Product Desc:     AcDim ARX App For Dimension|Company:          Autodesk, Inc.|WEB Address:      www.autodesk.com"
 90
        0
 91
       10
280
     0
281
     0
  0
CLASS
  1
SORTENTSTABLE
  2
AcDbSortentsTable
  3
ObjectDBX Classes
 90
        0
 91
        1
280
     0
281
     0
  0
ENDSEC
  0
SECTION
  2
TABLES
  0
TABLE
  2
VPORT
  5
8
330
0
100
AcDbSymbolTable
 70
     1
  0
VPORT
  5
29
330
8
100
AcDbSymbolTableRecord
100
AcDbViewportTableRecord
  2
*Active
 70
     0
 10
0.0
 20
0.0
 11
1.0
 21
1.0
 12
1390.020607400698
 22
395.7319299097001
 13
0.0
 23
0.0
 14
0.5
 24
0.5
 15
0.5
 25
0.5
 16
0.0
 26
0.0
 36
1.0
 17
336.0000193604445
 27
195.4999193955694
 37
0.0
 40
828.0918617410666
 41
2.225806451612903
 42
50.0
 43
0.0
 44
0.0
 50
0.0
 51
0.0
 71
     0
 72
   100
 73
     1
 74
     3
 75
     0
 76
     0
 77
     0
 78
     0
281
     0
 65
     1
110
0.0
120
0.0
130
0.0
111
1.0
121
0.0
131
0.0
112
0.0
122
1.0
132
0.0
 79
     0
146
0.0
348
2F
 60
     3
 61
     5
292
     1
282
     1
141
0.0
142
0.0
 63
   250
361
3F
  0
ENDTAB
  0
TABLE
  2
LTYPE
  5
5
330
0
100
AcDbSymbolTable
 70
     1
  0
LTYPE
  5
14
330
5
100
AcDbSymbolTableRecord
100
AcDbLinetypeTableRecord
  2
ByBlock
 70
     0
  3

 72
    65
 73
     0
 40
0.0
  0
LTYPE
  5
15
330
5
100
AcDbSymbolTableRecord
100
AcDbLinetypeTableRecord
  2
ByLayer
 70
     0
  3

 72
    65
 73
     0
 40
0.0
  0
LTYPE
  5
16
330
5
100
AcDbSymbolTableRecord
100
AcDbLinetypeTableRecord
  2
Continuous
 70
     0
  3
Solid line
 72
    65
 73
     0
 40
0.0
  0
ENDTAB
  0
TABLE
  2
LAYER
  5
2
330
0
100
AcDbSymbolTable
 70
     7
  0
LAYER
  5
10
330
2
100
AcDbSymbolTableRecord
100
AcDbLayerTableRecord
  2
0
 70
     0
 62
     7
  6
Continuous
370
    -3
390
F
347
3E
  0
LAYER
  5
40
330
2
100
AcDbSymbolTableRecord
100
AcDbLayerTableRecord
  2
LyImg
 70
     0
 62
     7
  6
Continuous
370
    -3
390
F
347
3E
  0
LAYER
  5
41
330
2
100
AcDbSymbolTableRecord
100
AcDbLayerTableRecord
  2
LyDash
 70
     0
 62
     7
  6
Continuous
370
    -3
390
F
347
3E
  0
LAYER
  5
82
330
2
100
AcDbSymbolTableRecord
100
AcDbLayerTableRecord
  2
LySolid
 70
     0
 62
     7
  6
Continuous
370
    -3
390
F
347
3E
  0
LAYER
  5
19B
330
2
100
AcDbSymbolTableRecord
100
AcDbLayerTableRecord
  2
LySign
 70
     0
 62
     7
  6
Continuous
370
    -3
390
F
347
3E
  0
LAYER
  5
19C
330
2
100
AcDbSymbolTableRecord
100
AcDbLayerTableRecord
  2
LyAlignment
 70
     0
 62
     7
  6
Continuous
370
    -3
390
F
347
3E
  0
LAYER
  5
1E8
330
2
100
AcDbSymbolTableRecord
100
AcDbLayerTableRecord
  2
Defpoints
 70
     0
 62
     7
  6
Continuous
290
     0
370
    -3
390
F
347
3E
  0
ENDTAB
  0
TABLE
  2
STYLE
  5
3
330
0
100
AcDbSymbolTable
 70
     1
  0
STYLE
  5
11
330
3
100
AcDbSymbolTableRecord
100
AcDbTextStyleTableRecord
  2
Standard
 70
     0
 40
0.0
 41
1.0
 50
0.0
 71
     0
 42
0.2
  3
txt
  4

  0
ENDTAB
  0
TABLE
  2
VIEW
  5
6
330
0
100
AcDbSymbolTable
 70
     0
  0
ENDTAB
  0
TABLE
  2
UCS
  5
7
330
0
100
AcDbSymbolTable
 70
     0
  0
ENDTAB
  0
TABLE
  2
APPID
  5
9
330
0
100
AcDbSymbolTable
 70
     1
  0
APPID
  5
12
330
9
100
AcDbSymbolTableRecord
100
AcDbRegAppTableRecord
  2
ACAD
 70
     0
  0
ENDTAB
  0
TABLE
  2
DIMSTYLE
  5
A
330
0
100
AcDbSymbolTable
 70
     1
100
AcDbDimStyleTable
 71
     1
340
27
  0
DIMSTYLE
105
27
102
{ACAD_REACTORS
330
1E7
330
202
330
21C
330
51A
330
51D
330
520
330
698
330
6B2
330
6E0
330
708
330
75D
330
777
330
791
330
7AB
102
}
330
A
100
AcDbSymbolTableRecord
100
AcDbDimStyleTableRecord
  2
Standard
 70
     0
140
10.0
271
     1
272
     1
340
11
  0
ENDTAB
  0
TABLE
  2
BLOCK_RECORD
  5
1
330
0
100
AcDbSymbolTable
 70
    19
  0
BLOCK_RECORD
  5
1F
102
{ACAD_XDICTIONARY
360
60C
102
}
330
1
100
AcDbSymbolTableRecord
100
AcDbBlockTableRecord
  2
*Model_Space
340
22
 70
     0
280
     1
281
     0
  0
BLOCK_RECORD
  5
1B
330
1
100
AcDbSymbolTableRecord
100
AcDbBlockTableRecord
  2
*Paper_Space
340
1E
 70
     0
280
     1
281
     0
  0
BLOCK_RECORD
  5
23
330
1
100
AcDbSymbolTableRecord
100
AcDbBlockTableRecord
  2
*Paper_Space0
340
26
 70
     0
280
     1
281
     0
  0
BLOCK_RECORD
  5
1E9
330
1
100
AcDbSymbolTableRecord
100
AcDbBlockTableRecord
  2
*D1
340
0
 70
     0
280
     1
281
     0
  0
BLOCK_RECORD
  5
203
330
1
100
AcDbSymbolTableRecord
100
AcDbBlockTableRecord
  2
*D2
340
0
 70
     0
280
     1
281
     0
  0
BLOCK_RECORD
  5
21D
330
1
100
AcDbSymbolTableRecord
100
AcDbBlockTableRecord
  2
*D3
340
0
 70
     0
280
     1
281
     0
  0
BLOCK_RECORD
  5
236
330
1
100
AcDbSymbolTableRecord
100
AcDbBlockTableRecord
  2
*D4
340
0
 70
     0
280
     1
281
     0
  0
BLOCK_RECORD
  5
243
330
1
100
AcDbSymbolTableRecord
100
AcDbBlockTableRecord
  2
*D5
340
0
 70
     0
280
     1
281
     0
  0
BLOCK_RECORD
  5
250
330
1
100
AcDbSymbolTableRecord
100
AcDbBlockTableRecord
  2
*D6
340
0
 70
     0
280
     1
281
     0
  0
BLOCK_RECORD
  5
523
330
1
100
AcDbSymbolTableRecord
100
AcDbBlockTableRecord
  2
*D7
340
0
 70
     0
280
     1
281
     0
  0
BLOCK_RECORD
  5
530
330
1
100
AcDbSymbolTableRecord
100
AcDbBlockTableRecord
  2
*D8
340
0
 70
     0
280
     1
281
     0
  0
BLOCK_RECORD
  5
53D
330
1
100
AcDbSymbolTableRecord
100
AcDbBlockTableRecord
  2
*D9
340
0
 70
     0
280
     1
281
     0
  0
BLOCK_RECORD
  5
699
330
1
100
AcDbSymbolTableRecord
100
AcDbBlockTableRecord
  2
*D10
340
0
 70
     0
280
     1
281
     0
  0
BLOCK_RECORD
  5
6B3
330
1
100
AcDbSymbolTableRecord
100
AcDbBlockTableRecord
  2
*D11
340
0
 70
     0
280
     1
281
     0
  0
BLOCK_RECORD
  5
6E1
330
1
100
AcDbSymbolTableRecord
100
AcDbBlockTableRecord
  2
*D12
340
0
 70
     0
280
     1
281
     0
  0
BLOCK_RECORD
  5
709
330
1
100
AcDbSymbolTableRecord
100
AcDbBlockTableRecord
  2
*D13
340
0
 70
     0
280
     1
281
     0
  0
BLOCK_RECORD
  5
72C
330
1
100
AcDbSymbolTableRecord
100
AcDbBlockTableRecord
  2
*D14
340
0
 70
     0
280
     1
281
     0
  0
BLOCK_RECORD
  5
75E
330
1
100
AcDbSymbolTableRecord
100
AcDbBlockTableRecord
  2
*D15
340
0
 70
     0
280
     1
281
     0
  0
BLOCK_RECORD
  5
778
330
1
100
AcDbSymbolTableRecord
100
AcDbBlockTableRecord
  2
*D16
340
0
 70
     0
280
     1
281
     0
  0
BLOCK_RECORD
  5
792
330
1
100
AcDbSymbolTableRecord
100
AcDbBlockTableRecord
  2
*D17
340
0
 70
     0
280
     1
281
     0
  0
BLOCK_RECORD
  5
7AC
330
1
100
AcDbSymbolTableRecord
100
AcDbBlockTableRecord
  2
*D18
340
0
 70
     0
280
     1
281
     0
  0
ENDTAB
  0
ENDSEC
  0
SECTION
  2
BLOCKS
  0
BLOCK
  5
20
330
1F
100
AcDbEntity
  8
0
100
AcDbBlockBegin
  2
*Model_Space
 70
     0
 10
0.0
 20
0.0
 30
0.0
  3
*Model_Space
  1

  0
ENDBLK
  5
21
330
1F
100
AcDbEntity
  8
0
100
AcDbBlockEnd
  0
BLOCK
  5
1C
330
1B
100
AcDbEntity
 67
     1
  8
0
100
AcDbBlockBegin
  2
*Paper_Space
 70
     0
 10
0.0
 20
0.0
 30
0.0
  3
*Paper_Space
  1

  0
ENDBLK
  5
1D
330
1B
100
AcDbEntity
 67
     1
  8
0
100
AcDbBlockEnd
  0
BLOCK
  5
24
330
23
100
AcDbEntity
 67
     1
  8
0
100
AcDbBlockBegin
  2
*Paper_Space0
 70
     0
 10
0.0
 20
0.0
 30
0.0
  3
*Paper_Space0
  1

  0
ENDBLK
  5
25
330
23
100
AcDbEntity
 67
     1
  8
0
100
AcDbBlockEnd
  0
BLOCK
  5
1F4
330
1E9
100
AcDbEntity
  8
0
100
AcDbBlockBegin
  2
*D1
 70
     1
 10
0.0
 20
0.0
 30
0.0
  3
*D1
  1

  0
LINE
  5
982
330
1E9
100
AcDbEntity
  8
0
 62
     0
370
    -2
100
AcDbLine
 10
980.1266842352729
 20
616.9617717851413
 30
0.0
 11
980.1266842352729
 21
620.283050543211
 31
0.0
  0
LINE
  5
983
330
1E9
100
AcDbEntity
  8
0
 62
     0
370
    -2
100
AcDbLine
 10
1340.126814543395
 20
616.9617717851413
 30
0.0
 11
1340.126814543395
 21
620.283050543211
 31
0.0
  0
LINE
  5
984
330
1E9
100
AcDbEntity
  8
0
 62
     0
370
    -2
100
AcDbLine
 10
980.3066842352729
 20
620.1030505432111
 30
0.0
 11
1141.703416056
 21
620.1030505432111
 31
0.0
  0
LINE
  5
985
330
1E9
100
AcDbEntity
  8
0
 62
     0
370
    -2
100
AcDbLine
 10
1339.946814543395
 20
620.1030505432111
 30
0.0
 11
1178.550082722667
 21
620.1030505432111
 31
0.0
  0
SOLID
  5
986
330
1E9
100
AcDbEntity
  8
0
 62
     0
100
AcDbTrace
 10
980.3066842352729
 20
620.133050543211
 30
0.0
 11
980.3066842352729
 21
620.0730505432111
 31
0.0
 12
980.1266842352729
 22
620.1030505432111
 32
0.0
 13
980.1266842352729
 23
620.1030505432111
 33
0.0
  0
SOLID
  5
987
330
1E9
100
AcDbEntity
  8
0
 62
     0
100
AcDbTrace
 10
1339.946814543395
 20
620.133050543211
 30
0.0
 11
1339.946814543395
 21
620.0730505432111
 31
0.0
 12
1340.126814543395
 22
620.1030505432111
 32
0.0
 13
1340.126814543395
 23
620.1030505432111
 33
0.0
  0
MTEXT
  5
988
330
1E9
100
AcDbEntity
  8
0
 62
     0
100
AcDbMText
 10
1160.126749389334
 20
620.1030505432111
 30
0.0
 40
10.0
 41
0.0
 46
0.0
 71
     5
 72
     1
  1
\A1;360.0
 73
     1
 44
1.0
  0
POINT
  5
989
330
1E9
100
AcDbEntity
  8
Defpoints
 62
     0
100
AcDbPoint
 10
980.1266842352729
 20
616.8992717851413
 30
0.0
  0
POINT
  5
98A
330
1E9
100
AcDbEntity
  8
Defpoints
 62
     0
100
AcDbPoint
 10
1340.126814543395
 20
616.8992717851413
 30
0.0
  0
POINT
  5
98B
330
1E9
100
AcDbEntity
  8
Defpoints
 62
     0
100
AcDbPoint
 10
1340.126814543395
 20
620.1030505432111
 30
0.0
  0
ENDBLK
  5
1F5
330
1E9
100
AcDbEntity
  8
0
100
AcDbBlockEnd
  0
BLOCK
  5
20E
330
203
100
AcDbEntity
  8
0
100
AcDbBlockBegin
  2
*D2
 70
     1
 10
0.0
 20
0.0
 30
0.0
  3
*D2
  1

  0
LINE
  5
978
330
203
100
AcDbEntity
  8
0
 62
     0
370
    -2
100
AcDbLine
 10
1273.446334118147
 20
726.3814412916473
 30
0.0
 11
1265.085129490496
 21
726.3814412916473
 31
0.0
  0
LINE
  5
979
330
203
100
AcDbEntity
  8
0
 62
     0
370
    -2
100
AcDbLine
 10
1273.446334118147
 20
451.3814331882998
 30
0.0
 11
1265.085129490496
 21
451.3814331882998
 31
0.0
  0
LINE
  5
97A
330
203
100
AcDbEntity
  8
0
 62
     0
370
    -2
100
AcDbLine
 10
1265.265129490496
 20
726.2014412916474
 30
0.0
 11
1265.265129490496
 21
593.9714372399736
 31
0.0
  0
LINE
  5
97B
330
203
100
AcDbEntity
  8
0
 62
     0
370
    -2
100
AcDbLine
 10
1265.265129490496
 20
451.5614331882998
 30
0.0
 11
1265.265129490496
 21
583.7914372399735
 31
0.0
  0
SOLID
  5
97C
330
203
100
AcDbEntity
  8
0
 62
     0
100
AcDbTrace
 10
1265.235129490496
 20
726.2014412916474
 30
0.0
 11
1265.295129490496
 21
726.2014412916474
 31
0.0
 12
1265.265129490496
 22
726.3814412916473
 32
0.0
 13
1265.265129490496
 23
726.3814412916473
 33
0.0
  0
SOLID
  5
97D
330
203
100
AcDbEntity
  8
0
 62
     0
100
AcDbTrace
 10
1265.235129490496
 20
451.5614331882998
 30
0.0
 11
1265.295129490496
 21
451.5614331882998
 31
0.0
 12
1265.265129490496
 22
451.3814331882998
 32
0.0
 13
1265.265129490496
 23
451.3814331882998
 33
0.0
  0
MTEXT
  5
97E
330
203
100
AcDbEntity
  8
0
 62
     0
100
AcDbMText
 10
1265.265129490496
 20
588.8814372399736
 30
0.0
 40
10.0
 41
0.0
 46
0.0
 71
     5
 72
     1
  1
\A1;275.0
 73
     1
 44
1.0
  0
POINT
  5
97F
330
203
100
AcDbEntity
  8
Defpoints
 62
     0
100
AcDbPoint
 10
1273.508834118147
 20
726.3814412916473
 30
0.0
  0
POINT
  5
980
330
203
100
AcDbEntity
  8
Defpoints
 62
     0
100
AcDbPoint
 10
1273.508834118147
 20
451.3814331882998
 30
0.0
  0
POINT
  5
981
330
203
100
AcDbEntity
  8
Defpoints
 62
     0
100
AcDbPoint
 10
1265.265129490496
 20
451.3814331882998
 30
0.0
  0
ENDBLK
  5
20F
330
203
100
AcDbEntity
  8
0
100
AcDbBlockEnd
  0
BLOCK
  5
228
330
21D
100
AcDbEntity
  8
0
100
AcDbBlockBegin
  2
*D3
 70
     1
 10
0.0
 20
0.0
 30
0.0
  3
*D3
  1

  0
LINE
  5
9D2
330
21D
100
AcDbEntity
  8
0
 62
     0
370
    -2
100
AcDbLine
 10
1340.126814543395
 20
634.3679280919047
 30
0.0
 11
1340.126814543395
 21
634.943110771629
 31
0.0
  0
LINE
  5
9D3
330
21D
100
AcDbEntity
  8
0
 62
     0
370
    -2
100
AcDbLine
 10
1460.126775632006
 20
634.3679280919047
 30
0.0
 11
1460.126775632006
 21
634.943110771629
 31
0.0
  0
LINE
  5
9D4
330
21D
100
AcDbEntity
  8
0
 62
     0
370
    -2
100
AcDbLine
 10
1340.306814543395
 20
634.763110771629
 30
0.0
 11
1383.370128421034
 21
634.763110771629
 31
0.0
  0
LINE
  5
9D5
330
21D
100
AcDbEntity
  8
0
 62
     0
370
    -2
100
AcDbLine
 10
1459.946775632006
 20
634.763110771629
 30
0.0
 11
1416.883461754367
 21
634.763110771629
 31
0.0
  0
SOLID
  5
9D6
330
21D
100
AcDbEntity
  8
0
 62
     0
100
AcDbTrace
 10
1340.306814543395
 20
634.793110771629
 30
0.0
 11
1340.306814543395
 21
634.733110771629
 31
0.0
 12
1340.126814543395
 22
634.763110771629
 32
0.0
 13
1340.126814543395
 23
634.763110771629
 33
0.0
  0
SOLID
  5
9D7
330
21D
100
AcDbEntity
  8
0
 62
     0
100
AcDbTrace
 10
1459.946775632006
 20
634.793110771629
 30
0.0
 11
1459.946775632006
 21
634.733110771629
 31
0.0
 12
1460.126775632006
 22
634.763110771629
 32
0.0
 13
1460.126775632006
 23
634.763110771629
 33
0.0
  0
MTEXT
  5
9D8
330
21D
100
AcDbEntity
  8
0
 62
     0
100
AcDbMText
 10
1400.1267950877
 20
634.763110771629
 30
0.0
 40
10.0
 41
0.0
 46
0.0
 71
     5
 72
     1
  1
\A1;120.0
 73
     1
 44
1.0
  0
POINT
  5
9D9
330
21D
100
AcDbEntity
  8
Defpoints
 62
     0
100
AcDbPoint
 10
1340.126814543395
 20
634.3054280919048
 30
0.0
  0
POINT
  5
9DA
330
21D
100
AcDbEntity
  8
Defpoints
 62
     0
100
AcDbPoint
 10
1460.126775632006
 20
634.3054280919048
 30
0.0
  0
POINT
  5
9DB
330
21D
100
AcDbEntity
  8
Defpoints
 62
     0
100
AcDbPoint
 10
1460.126775632006
 20
634.763110771629
 30
0.0
  0
ENDBLK
  5
229
330
21D
100
AcDbEntity
  8
0
100
AcDbBlockEnd
  0
BLOCK
  5
237
330
236
100
AcDbEntity
  8
0
100
AcDbBlockBegin
  2
*D4
 70
     1
 10
0.0
 20
0.0
 30
0.0
  3
*D4
  1

  0
LINE
  5
238
330
236
100
AcDbEntity
  8
0
 62
     0
370
    -2
100
AcDbLine
 10
942.267554680974
 20
430.3455059052629
 30
0.0
 11
942.267554680974
 21
429.4990020462877
 31
0.0
  0
LINE
  5
239
330
236
100
AcDbEntity
  8
0
 62
     0
370
    -2
100
AcDbLine
 10
1139.267630820311
 20
430.3455059052629
 30
0.0
 11
1139.267630820311
 21
429.4990020462877
 31
0.0
  0
LINE
  5
23A
330
236
100
AcDbEntity
  8
0
 62
     0
370
    -2
100
AcDbLine
 10
942.4475546809739
 20
429.6790020462878
 30
0.0
 11
1023.177592750642
 21
429.6790020462878
 31
0.0
  0
LINE
  5
23B
330
236
100
AcDbEntity
  8
0
 62
     0
370
    -2
100
AcDbLine
 10
1139.087630820311
 20
429.6790020462878
 30
0.0
 11
1058.357592750642
 21
429.6790020462878
 31
0.0
  0
SOLID
  5
23C
330
236
100
AcDbEntity
  8
0
 62
     0
100
AcDbTrace
 10
942.4475546809739
 20
429.7090020462877
 30
0.0
 11
942.4475546809739
 21
429.6490020462877
 31
0.0
 12
942.267554680974
 22
429.6790020462878
 32
0.0
 13
942.267554680974
 23
429.6790020462878
 33
0.0
  0
SOLID
  5
23D
330
236
100
AcDbEntity
  8
0
 62
     0
100
AcDbTrace
 10
1139.087630820311
 20
429.7090020462877
 30
0.0
 11
1139.087630820311
 21
429.6490020462877
 31
0.0
 12
1139.267630820311
 22
429.6790020462878
 32
0.0
 13
1139.267630820311
 23
429.6790020462878
 33
0.0
  0
MTEXT
  5
23E
330
236
100
AcDbEntity
  8
0
 62
     0
100
AcDbMText
 10
1040.767592750642
 20
429.6790020462878
 30
0.0
 40
10.0
 41
0.0
 46
0.0
 71
     5
 72
     1
  1
\A1;197.0
 73
     1
 44
1.0
  0
POINT
  5
23F
330
236
100
AcDbEntity
  8
Defpoints
 62
     0
100
AcDbPoint
 10
942.267554680974
 20
430.4080059052629
 30
0.0
  0
POINT
  5
240
330
236
100
AcDbEntity
  8
Defpoints
 62
     0
100
AcDbPoint
 10
1139.267630820311
 20
430.4080059052629
 30
0.0
  0
POINT
  5
241
330
236
100
AcDbEntity
  8
Defpoints
 62
     0
100
AcDbPoint
 10
1139.267630820311
 20
429.6790020462878
 30
0.0
  0
ENDBLK
  5
242
330
236
100
AcDbEntity
  8
0
100
AcDbBlockEnd
  0
BLOCK
  5
244
330
243
100
AcDbEntity
  8
0
100
AcDbBlockBegin
  2
*D5
 70
     1
 10
0.0
 20
0.0
 30
0.0
  3
*D5
  1

  0
LINE
  5
245
330
243
100
AcDbEntity
  8
0
 62
     0
370
    -2
100
AcDbLine
 10
1086.33625922052
 20
577.6323737722817
 30
0.0
 11
1087.183242752931
 21
577.6323737722817
 31
0.0
  0
LINE
  5
246
330
243
100
AcDbEntity
  8
0
 62
     0
370
    -2
100
AcDbLine
 10
1086.33625922052
 20
310.6321930301165
 30
0.0
 11
1087.183242752931
 21
310.6321930301165
 31
0.0
  0
LINE
  5
247
330
243
100
AcDbEntity
  8
0
 62
     0
370
    -2
100
AcDbLine
 10
1087.003242752931
 20
577.4523737722817
 30
0.0
 11
1087.003242752931
 21
449.222283401199
 31
0.0
  0
LINE
  5
248
330
243
100
AcDbEntity
  8
0
 62
     0
370
    -2
100
AcDbLine
 10
1087.003242752931
 20
310.8121930301165
 30
0.0
 11
1087.003242752931
 21
439.0422834011991
 31
0.0
  0
SOLID
  5
249
330
243
100
AcDbEntity
  8
0
 62
     0
100
AcDbTrace
 10
1086.973242752931
 20
577.4523737722817
 30
0.0
 11
1087.033242752931
 21
577.4523737722817
 31
0.0
 12
1087.003242752931
 22
577.6323737722817
 32
0.0
 13
1087.003242752931
 23
577.6323737722817
 33
0.0
  0
SOLID
  5
24A
330
243
100
AcDbEntity
  8
0
 62
     0
100
AcDbTrace
 10
1086.973242752931
 20
310.8121930301165
 30
0.0
 11
1087.033242752931
 21
310.8121930301165
 31
0.0
 12
1087.003242752931
 22
310.6321930301165
 32
0.0
 13
1087.003242752931
 23
310.6321930301165
 33
0.0
  0
MTEXT
  5
24B
330
243
100
AcDbEntity
  8
0
 62
     0
100
AcDbMText
 10
1087.003242752931
 20
444.1322834011993
 30
0.0
 40
10.0
 41
0.0
 46
0.0
 71
     5
 72
     1
  1
\A1;267.0
 73
     1
 44
1.0
  0
POINT
  5
24C
330
243
100
AcDbEntity
  8
Defpoints
 62
     0
100
AcDbPoint
 10
1086.27375922052
 20
577.6323737722817
 30
0.0
  0
POINT
  5
24D
330
243
100
AcDbEntity
  8
Defpoints
 62
     0
100
AcDbPoint
 10
1086.27375922052
 20
310.6321930301165
 30
0.0
  0
POINT
  5
24E
330
243
100
AcDbEntity
  8
Defpoints
 62
     0
100
AcDbPoint
 10
1087.003242752931
 20
310.6321930301165
 30
0.0
  0
ENDBLK
  5
24F
330
243
100
AcDbEntity
  8
0
100
AcDbBlockEnd
  0
BLOCK
  5
251
330
250
100
AcDbEntity
  8
0
100
AcDbBlockBegin
  2
*D6
 70
     1
 10
0.0
 20
0.0
 30
0.0
  3
*D6
  1

  0
LINE
  5
252
330
250
100
AcDbEntity
  8
0
 62
     0
370
    -2
100
AcDbLine
 10
1139.267630820311
 20
444.1947083742473
 30
0.0
 11
1139.267630820311
 21
444.5070142927494
 31
0.0
  0
LINE
  5
253
330
250
100
AcDbEntity
  8
0
 62
     0
370
    -2
100
AcDbLine
 10
1223.267547465978
 20
444.1947083742473
 30
0.0
 11
1223.267547465978
 21
444.5070142927494
 31
0.0
  0
LINE
  5
254
330
250
100
AcDbEntity
  8
0
 62
     0
370
    -2
100
AcDbLine
 10
1139.447630820311
 20
444.3270142927493
 30
0.0
 11
1167.010922476478
 21
444.3270142927493
 31
0.0
  0
LINE
  5
255
330
250
100
AcDbEntity
  8
0
 62
     0
370
    -2
100
AcDbLine
 10
1223.087547465978
 20
444.3270142927493
 30
0.0
 11
1195.524255809811
 21
444.3270142927493
 31
0.0
  0
SOLID
  5
256
330
250
100
AcDbEntity
  8
0
 62
     0
100
AcDbTrace
 10
1139.447630820311
 20
444.3570142927493
 30
0.0
 11
1139.447630820311
 21
444.2970142927493
 31
0.0
 12
1139.267630820311
 22
444.3270142927493
 32
0.0
 13
1139.267630820311
 23
444.3270142927493
 33
0.0
  0
SOLID
  5
257
330
250
100
AcDbEntity
  8
0
 62
     0
100
AcDbTrace
 10
1223.087547465978
 20
444.3570142927493
 30
0.0
 11
1223.087547465978
 21
444.2970142927493
 31
0.0
 12
1223.267547465978
 22
444.3270142927493
 32
0.0
 13
1223.267547465978
 23
444.3270142927493
 33
0.0
  0
MTEXT
  5
258
330
250
100
AcDbEntity
  8
0
 62
     0
100
AcDbMText
 10
1181.267589143144
 20
444.3270142927493
 30
0.0
 40
10.0
 41
0.0
 46
0.0
 71
     5
 72
     1
  1
\A1;84.0
 73
     1
 44
1.0
  0
POINT
  5
259
330
250
100
AcDbEntity
  8
Defpoints
 62
     0
100
AcDbPoint
 10
1139.267630820311
 20
444.1322083742472
 30
0.0
  0
POINT
  5
25A
330
250
100
AcDbEntity
  8
Defpoints
 62
     0
100
AcDbPoint
 10
1223.267547465978
 20
444.1322083742472
 30
0.0
  0
POINT
  5
25B
330
250
100
AcDbEntity
  8
Defpoints
 62
     0
100
AcDbPoint
 10
1223.267547465978
 20
444.3270142927493
 30
0.0
  0
ENDBLK
  5
25C
330
250
100
AcDbEntity
  8
0
100
AcDbBlockEnd
  0
BLOCK
  5
52E
330
523
100
AcDbEntity
  8
0
100
AcDbBlockBegin
  2
*D7
 70
     1
 10
0.0
 20
0.0
 30
0.0
  3
*D7
  1

  0
LINE
  5
9AA
330
523
100
AcDbEntity
  8
0
 62
     0
370
    -2
100
AcDbLine
 10
2298.195522357156
 20
621.9764462211883
 30
0.0
 11
2298.195522357156
 21
622.8229500801638
 31
0.0
  0
LINE
  5
9AB
330
523
100
AcDbEntity
  8
0
 62
     0
370
    -2
100
AcDbLine
 10
2031.195446217819
 20
621.9764462211887
 30
0.0
 11
2031.195446217819
 21
622.8229500801638
 31
0.0
  0
LINE
  5
9AC
330
523
100
AcDbEntity
  8
0
 62
     0
370
    -2
100
AcDbLine
 10
2298.015522357157
 20
622.6429500801637
 30
0.0
 11
2183.952150954154
 21
622.6429500801637
 31
0.0
  0
LINE
  5
9AD
330
523
100
AcDbEntity
  8
0
 62
     0
370
    -2
100
AcDbLine
 10
2031.375446217819
 20
622.6429500801637
 30
0.0
 11
2145.438817620821
 21
622.6429500801637
 31
0.0
  0
SOLID
  5
9AE
330
523
100
AcDbEntity
  8
0
 62
     0
100
AcDbTrace
 10
2298.015522357157
 20
622.6729500801638
 30
0.0
 11
2298.015522357157
 21
622.6129500801638
 31
0.0
 12
2298.195522357156
 22
622.6429500801637
 32
0.0
 13
2298.195522357156
 23
622.6429500801637
 33
0.0
  0
SOLID
  5
9AF
330
523
100
AcDbEntity
  8
0
 62
     0
100
AcDbTrace
 10
2031.375446217819
 20
622.6729500801638
 30
0.0
 11
2031.375446217819
 21
622.6129500801638
 31
0.0
 12
2031.195446217819
 22
622.6429500801637
 32
0.0
 13
2031.195446217819
 23
622.6429500801637
 33
0.0
  0
MTEXT
  5
9B0
330
523
100
AcDbEntity
  8
0
 62
     0
100
AcDbMText
 10
2164.695484287488
 20
622.6429500801637
 30
0.0
 40
10.0
 41
0.0
 46
0.0
 71
     5
 72
     1
  1
\A1;267.0
 73
     1
 44
1.0
  0
POINT
  5
9B1
330
523
100
AcDbEntity
  8
Defpoints
 62
     0
100
AcDbPoint
 10
2298.195522357156
 20
621.9139462211883
 30
0.0
  0
POINT
  5
9B2
330
523
100
AcDbEntity
  8
Defpoints
 62
     0
100
AcDbPoint
 10
2031.195446217819
 20
621.9139462211886
 30
0.0
  0
POINT
  5
9B3
330
523
100
AcDbEntity
  8
Defpoints
 62
     0
100
AcDbPoint
 10
2031.195446217819
 20
622.6429500801637
 30
0.0
  0
ENDBLK
  5
52F
330
523
100
AcDbEntity
  8
0
100
AcDbBlockEnd
  0
BLOCK
  5
53B
330
530
100
AcDbEntity
  8
0
100
AcDbBlockBegin
  2
*D8
 70
     1
 10
0.0
 20
0.0
 30
0.0
  3
*D8
  1

  0
LINE
  5
9BE
330
530
100
AcDbEntity
  8
0
 62
     0
370
    -2
100
AcDbLine
 10
2102.965238120613
 20
404.6895783541697
 30
0.0
 11
2102.118254588202
 21
404.6895783541697
 31
0.0
  0
LINE
  5
9BF
330
530
100
AcDbEntity
  8
0
 62
     0
370
    -2
100
AcDbLine
 10
2102.965238120614
 20
741.6897590963351
 30
0.0
 11
2102.118254588202
 21
741.6897590963351
 31
0.0
  0
LINE
  5
9C0
330
530
100
AcDbEntity
  8
0
 62
     0
370
    -2
100
AcDbLine
 10
2102.298254588202
 20
404.8695783541697
 30
0.0
 11
2102.298254588202
 21
568.0996687252523
 31
0.0
  0
LINE
  5
9C1
330
530
100
AcDbEntity
  8
0
 62
     0
370
    -2
100
AcDbLine
 10
2102.298254588202
 20
741.5097590963352
 30
0.0
 11
2102.298254588202
 21
578.2796687252524
 31
0.0
  0
SOLID
  5
9C2
330
530
100
AcDbEntity
  8
0
 62
     0
100
AcDbTrace
 10
2102.268254588202
 20
404.8695783541697
 30
0.0
 11
2102.328254588202
 21
404.8695783541697
 31
0.0
 12
2102.298254588202
 22
404.6895783541697
 32
0.0
 13
2102.298254588202
 23
404.6895783541697
 33
0.0
  0
SOLID
  5
9C3
330
530
100
AcDbEntity
  8
0
 62
     0
100
AcDbTrace
 10
2102.268254588202
 20
741.5097590963352
 30
0.0
 11
2102.328254588202
 21
741.5097590963352
 31
0.0
 12
2102.298254588202
 22
741.6897590963351
 32
0.0
 13
2102.298254588202
 23
741.6897590963351
 33
0.0
  0
MTEXT
  5
9C4
330
530
100
AcDbEntity
  8
0
 62
     0
100
AcDbMText
 10
2102.298254588202
 20
573.1896687252527
 30
0.0
 40
10.0
 41
0.0
 46
0.0
 71
     5
 72
     1
  1
\A1;337.0
 73
     1
 44
1.0
  0
POINT
  5
9C5
330
530
100
AcDbEntity
  8
Defpoints
 62
     0
100
AcDbPoint
 10
2103.027738120613
 20
404.6895783541697
 30
0.0
  0
POINT
  5
9C6
330
530
100
AcDbEntity
  8
Defpoints
 62
     0
100
AcDbPoint
 10
2103.027738120614
 20
741.6897590963351
 30
0.0
  0
POINT
  5
9C7
330
530
100
AcDbEntity
  8
Defpoints
 62
     0
100
AcDbPoint
 10
2102.298254588202
 20
741.6897590963351
 30
0.0
  0
ENDBLK
  5
53C
330
530
100
AcDbEntity
  8
0
100
AcDbBlockEnd
  0
BLOCK
  5
548
330
53D
100
AcDbEntity
  8
0
100
AcDbBlockBegin
  2
*D9
 70
     1
 10
0.0
 20
0.0
 30
0.0
  3
*D9
  1

  0
LINE
  5
AAE
330
53D
100
AcDbEntity
  8
0
 62
     0
370
    -2
100
AcDbLine
 10
2031.195446217819
 20
608.1272437522041
 30
0.0
 11
2031.195446217819
 21
607.8149378337023
 31
0.0
  0
LINE
  5
AAF
330
53D
100
AcDbEntity
  8
0
 62
     0
370
    -2
100
AcDbLine
 10
1917.195529572152
 20
608.1272437522045
 30
0.0
 11
1917.195529572152
 21
607.8149378337023
 31
0.0
  0
LINE
  5
AB0
330
53D
100
AcDbEntity
  8
0
 62
     0
370
    -2
100
AcDbLine
 10
2031.015446217819
 20
607.9949378337023
 30
0.0
 11
1990.118821228319
 21
607.9949378337023
 31
0.0
  0
LINE
  5
AB1
330
53D
100
AcDbEntity
  8
0
 62
     0
370
    -2
100
AcDbLine
 10
1917.375529572152
 20
607.9949378337023
 30
0.0
 11
1958.272154561652
 21
607.9949378337023
 31
0.0
  0
SOLID
  5
AB2
330
53D
100
AcDbEntity
  8
0
 62
     0
100
AcDbTrace
 10
2031.015446217819
 20
608.0249378337023
 30
0.0
 11
2031.015446217819
 21
607.9649378337023
 31
0.0
 12
2031.195446217819
 22
607.9949378337023
 32
0.0
 13
2031.195446217819
 23
607.9949378337023
 33
0.0
  0
SOLID
  5
AB3
330
53D
100
AcDbEntity
  8
0
 62
     0
100
AcDbTrace
 10
1917.375529572152
 20
608.0249378337023
 30
0.0
 11
1917.375529572152
 21
607.9649378337023
 31
0.0
 12
1917.195529572152
 22
607.9949378337023
 32
0.0
 13
1917.195529572152
 23
607.9949378337023
 33
0.0
  0
MTEXT
  5
AB4
330
53D
100
AcDbEntity
  8
0
 62
     0
100
AcDbMText
 10
1974.195487894985
 20
607.9949378337023
 30
0.0
 40
10.0
 41
0.0
 46
0.0
 71
     5
 72
     1
  1
\A1;114.0
 73
     1
 44
1.0
  0
POINT
  5
AB5
330
53D
100
AcDbEntity
  8
Defpoints
 62
     0
100
AcDbPoint
 10
2031.195446217819
 20
608.1897437522042
 30
0.0
  0
POINT
  5
AB6
330
53D
100
AcDbEntity
  8
Defpoints
 62
     0
100
AcDbPoint
 10
1917.195529572152
 20
608.1897437522045
 30
0.0
  0
POINT
  5
AB7
330
53D
100
AcDbEntity
  8
Defpoints
 62
     0
100
AcDbPoint
 10
1917.195529572152
 20
607.9949378337023
 30
0.0
  0
ENDBLK
  5
549
330
53D
100
AcDbEntity
  8
0
100
AcDbBlockEnd
  0
BLOCK
  5
6A4
330
699
100
AcDbEntity
  8
0
100
AcDbBlockBegin
  2
*D10
 70
     1
 10
0.0
 20
0.0
 30
0.0
  3
*D10
  1

  0
LINE
  5
A72
330
699
100
AcDbEntity
  8
0
 62
     0
370
    -2
100
AcDbLine
 10
2165.244297825311
 20
404.6895783541696
 30
0.0
 11
2170.052053327597
 21
404.6895783541696
 31
0.0
  0
LINE
  5
A73
330
699
100
AcDbEntity
  8
0
 62
     0
370
    -2
100
AcDbLine
 10
2164.75800196427
 20
290.6896617085032
 30
0.0
 11
2170.052053327597
 21
290.6896617085032
 31
0.0
  0
LINE
  5
A74
330
699
100
AcDbEntity
  8
0
 62
     0
370
    -2
100
AcDbLine
 10
2169.872053327598
 20
404.5095783541696
 30
0.0
 11
2169.872053327598
 21
352.7796200313364
 31
0.0
  0
LINE
  5
A75
330
699
100
AcDbEntity
  8
0
 62
     0
370
    -2
100
AcDbLine
 10
2169.872053327598
 20
290.8696617085032
 30
0.0
 11
2169.872053327598
 21
342.5996200313364
 31
0.0
  0
SOLID
  5
A76
330
699
100
AcDbEntity
  8
0
 62
     0
100
AcDbTrace
 10
2169.842053327597
 20
404.5095783541696
 30
0.0
 11
2169.902053327598
 21
404.5095783541696
 31
0.0
 12
2169.872053327598
 22
404.6895783541696
 32
0.0
 13
2169.872053327598
 23
404.6895783541696
 33
0.0
  0
SOLID
  5
A77
330
699
100
AcDbEntity
  8
0
 62
     0
100
AcDbTrace
 10
2169.842053327597
 20
290.8696617085032
 30
0.0
 11
2169.902053327598
 21
290.8696617085032
 31
0.0
 12
2169.872053327598
 22
290.6896617085032
 32
0.0
 13
2169.872053327598
 23
290.6896617085032
 33
0.0
  0
MTEXT
  5
A78
330
699
100
AcDbEntity
  8
0
 62
     0
100
AcDbMText
 10
2169.872053327598
 20
347.6896200313368
 30
0.0
 40
10.0
 41
0.0
 46
0.0
 71
     5
 72
     1
  1
\A1;114.0
 73
     1
 44
1.0
  0
POINT
  5
A79
330
699
100
AcDbEntity
  8
Defpoints
 62
     0
100
AcDbPoint
 10
2165.181797825311
 20
404.6895783541696
 30
0.0
  0
POINT
  5
A7A
330
699
100
AcDbEntity
  8
Defpoints
 62
     0
100
AcDbPoint
 10
2164.69550196427
 20
290.6896617085032
 30
0.0
  0
POINT
  5
A7B
330
699
100
AcDbEntity
  8
Defpoints
 62
     0
100
AcDbPoint
 10
2169.872053327598
 20
290.6896617085032
 30
0.0
  0
ENDBLK
  5
6A5
330
699
100
AcDbEntity
  8
0
100
AcDbBlockEnd
  0
BLOCK
  5
6BE
330
6B3
100
AcDbEntity
  8
0
100
AcDbBlockBegin
  2
*D11
 70
     1
 10
0.0
 20
0.0
 30
0.0
  3
*D11
  1

  0
LINE
  5
A22
330
6B3
100
AcDbEntity
  8
0
 62
     0
370
    -2
100
AcDbLine
 10
853.1266670515075
 20
771.0444506343955
 30
0.0
 11
853.1266670515075
 21
772.6418113954054
 31
0.0
  0
LINE
  5
A23
330
6B3
100
AcDbEntity
  8
0
 62
     0
370
    -2
100
AcDbLine
 10
983.126671103181
 20
771.0444506343955
 30
0.0
 11
983.126671103181
 21
772.6418113954054
 31
0.0
  0
LINE
  5
A24
330
6B3
100
AcDbEntity
  8
0
 62
     0
370
    -2
100
AcDbLine
 10
853.3066670515074
 20
772.4618113954055
 30
0.0
 11
901.3700024106777
 21
772.4618113954055
 31
0.0
  0
LINE
  5
A25
330
6B3
100
AcDbEntity
  8
0
 62
     0
370
    -2
100
AcDbLine
 10
982.9466711031811
 20
772.4618113954055
 30
0.0
 11
934.883335744011
 21
772.4618113954055
 31
0.0
  0
SOLID
  5
A26
330
6B3
100
AcDbEntity
  8
0
 62
     0
100
AcDbTrace
 10
853.3066670515074
 20
772.4918113954055
 30
0.0
 11
853.3066670515074
 21
772.4318113954056
 31
0.0
 12
853.1266670515075
 22
772.4618113954055
 32
0.0
 13
853.1266670515075
 23
772.4618113954055
 33
0.0
  0
SOLID
  5
A27
330
6B3
100
AcDbEntity
  8
0
 62
     0
100
AcDbTrace
 10
982.9466711031811
 20
772.4918113954055
 30
0.0
 11
982.9466711031811
 21
772.4318113954056
 31
0.0
 12
983.126671103181
 22
772.4618113954055
 32
0.0
 13
983.126671103181
 23
772.4618113954055
 33
0.0
  0
MTEXT
  5
A28
330
6B3
100
AcDbEntity
  8
0
 62
     0
100
AcDbMText
 10
918.1266690773442
 20
772.4618113954055
 30
0.0
 40
10.0
 41
0.0
 46
0.0
 71
     5
 72
     1
  1
\A1;130.0
 73
     1
 44
1.0
  0
POINT
  5
A29
330
6B3
100
AcDbEntity
  8
Defpoints
 62
     0
100
AcDbPoint
 10
853.1266670515075
 20
770.9819506343956
 30
0.0
  0
POINT
  5
A2A
330
6B3
100
AcDbEntity
  8
Defpoints
 62
     0
100
AcDbPoint
 10
983.126671103181
 20
770.9819506343956
 30
0.0
  0
POINT
  5
A2B
330
6B3
100
AcDbEntity
  8
Defpoints
 62
     0
100
AcDbPoint
 10
983.126671103181
 20
772.4618113954055
 30
0.0
  0
ENDBLK
  5
6BF
330
6B3
100
AcDbEntity
  8
0
100
AcDbBlockEnd
  0
BLOCK
  5
6EC
330
6E1
100
AcDbEntity
  8
0
100
AcDbBlockBegin
  2
*D12
 70
     1
 10
0.0
 20
0.0
 30
0.0
  3
*D12
  1

  0
LINE
  5
AA4
330
6E1
100
AcDbEntity
  8
0
 62
     0
370
    -2
100
AcDbLine
 10
1874.195537917111
 20
799.5022447682968
 30
0.0
 11
1874.195537917111
 21
803.0666112369063
 31
0.0
  0
LINE
  5
AA5
330
6E1
100
AcDbEntity
  8
0
 62
     0
370
    -2
100
AcDbLine
 10
2034.195468439291
 20
799.5022447682968
 30
0.0
 11
2034.195468439291
 21
803.0666112369063
 31
0.0
  0
LINE
  5
AA6
330
6E1
100
AcDbEntity
  8
0
 62
     0
370
    -2
100
AcDbLine
 10
1874.375537917111
 20
802.8866112369064
 30
0.0
 11
1937.438836511534
 21
802.8866112369064
 31
0.0
  0
LINE
  5
AA7
330
6E1
100
AcDbEntity
  8
0
 62
     0
370
    -2
100
AcDbLine
 10
2034.015468439291
 20
802.8866112369064
 30
0.0
 11
1970.952169844867
 21
802.8866112369064
 31
0.0
  0
SOLID
  5
AA8
330
6E1
100
AcDbEntity
  8
0
 62
     0
100
AcDbTrace
 10
1874.375537917111
 20
802.9166112369065
 30
0.0
 11
1874.375537917111
 21
802.8566112369064
 31
0.0
 12
1874.195537917111
 22
802.8866112369064
 32
0.0
 13
1874.195537917111
 23
802.8866112369064
 33
0.0
  0
SOLID
  5
AA9
330
6E1
100
AcDbEntity
  8
0
 62
     0
100
AcDbTrace
 10
2034.015468439291
 20
802.9166112369065
 30
0.0
 11
2034.015468439291
 21
802.8566112369064
 31
0.0
 12
2034.195468439291
 22
802.8866112369064
 32
0.0
 13
2034.195468439291
 23
802.8866112369064
 33
0.0
  0
MTEXT
  5
AAA
330
6E1
100
AcDbEntity
  8
0
 62
     0
100
AcDbMText
 10
1954.195503178201
 20
802.8866112369064
 30
0.0
 40
10.0
 41
0.0
 46
0.0
 71
     5
 72
     1
  1
\A1;160.0
 73
     1
 44
1.0
  0
POINT
  5
AAB
330
6E1
100
AcDbEntity
  8
Defpoints
 62
     0
100
AcDbPoint
 10
1874.195537917111
 20
799.4397447682968
 30
0.0
  0
POINT
  5
AAC
330
6E1
100
AcDbEntity
  8
Defpoints
 62
     0
100
AcDbPoint
 10
2034.195468439291
 20
799.4397447682968
 30
0.0
  0
POINT
  5
AAD
330
6E1
100
AcDbEntity
  8
Defpoints
 62
     0
100
AcDbPoint
 10
2034.195468439291
 20
802.8866112369064
 30
0.0
  0
ENDBLK
  5
6ED
330
6E1
100
AcDbEntity
  8
0
100
AcDbBlockEnd
  0
BLOCK
  5
714
330
709
100
AcDbEntity
  8
0
100
AcDbBlockBegin
  2
*D13
 70
     1
 10
0.0
 20
0.0
 30
0.0
  3
*D13
  1

  0
LINE
  5
9F0
330
709
100
AcDbEntity
  8
0
 62
     0
370
    -2
100
AcDbLine
 10
860.1266548646981
 20
588.9439372399736
 30
0.0
 11
860.1266548646981
 21
632.9616372439367
 31
0.0
  0
LINE
  5
9F1
330
709
100
AcDbEntity
  8
0
 62
     0
370
    -2
100
AcDbLine
 10
980.1266842352729
 20
630.6469824063731
 30
0.0
 11
980.1266842352729
 21
632.9616372439367
 31
0.0
  0
LINE
  5
9F2
330
709
100
AcDbEntity
  8
0
 62
     0
370
    -2
100
AcDbLine
 10
860.306654864698
 20
632.7816372439368
 30
0.0
 11
903.3700028833189
 21
632.7816372439368
 31
0.0
  0
LINE
  5
9F3
330
709
100
AcDbEntity
  8
0
 62
     0
370
    -2
100
AcDbLine
 10
979.946684235273
 20
632.7816372439368
 30
0.0
 11
936.8833362166522
 21
632.7816372439368
 31
0.0
  0
SOLID
  5
9F4
330
709
100
AcDbEntity
  8
0
 62
     0
100
AcDbTrace
 10
860.306654864698
 20
632.8116372439368
 30
0.0
 11
860.306654864698
 21
632.7516372439369
 31
0.0
 12
860.1266548646981
 22
632.7816372439368
 32
0.0
 13
860.1266548646981
 23
632.7816372439368
 33
0.0
  0
SOLID
  5
9F5
330
709
100
AcDbEntity
  8
0
 62
     0
100
AcDbTrace
 10
979.946684235273
 20
632.8116372439368
 30
0.0
 11
979.946684235273
 21
632.7516372439369
 31
0.0
 12
980.1266842352729
 22
632.7816372439368
 32
0.0
 13
980.1266842352729
 23
632.7816372439368
 33
0.0
  0
MTEXT
  5
9F6
330
709
100
AcDbEntity
  8
0
 62
     0
100
AcDbMText
 10
920.1266695499855
 20
632.7816372439368
 30
0.0
 40
10.0
 41
0.0
 46
0.0
 71
     5
 72
     1
  1
\A1;120.0
 73
     1
 44
1.0
  0
POINT
  5
9F7
330
709
100
AcDbEntity
  8
Defpoints
 62
     0
100
AcDbPoint
 10
860.1266548646981
 20
588.8814372399735
 30
0.0
  0
POINT
  5
9F8
330
709
100
AcDbEntity
  8
Defpoints
 62
     0
100
AcDbPoint
 10
980.1266842352729
 20
630.5844824063731
 30
0.0
  0
POINT
  5
9F9
330
709
100
AcDbEntity
  8
Defpoints
 62
     0
100
AcDbPoint
 10
980.1266842352729
 20
632.7816372439368
 30
0.0
  0
ENDBLK
  5
715
330
709
100
AcDbEntity
  8
0
100
AcDbBlockEnd
  0
BLOCK
  5
737
330
72C
100
AcDbEntity
  8
0
100
AcDbBlockBegin
  2
*D14
 70
     1
 10
0.0
 20
0.0
 30
0.0
  3
*D14
  1

  0
LINE
  5
73A
330
72C
100
AcDbEntity
  8
0
 62
     0
370
    -2
100
AcDbLine
 10
1437.12682007495
 20
497.0364641735819
 30
0.0
 11
1437.12682007495
 21
503.9244297332905
 31
0.0
  0
LINE
  5
73B
330
72C
100
AcDbEntity
  8
0
 62
     0
370
    -2
100
AcDbLine
 10
1527.126678385284
 20
502.4439392482924
 30
0.0
 11
1527.126678385284
 21
503.9244297332905
 31
0.0
  0
LINE
  5
73C
330
72C
100
AcDbEntity
  8
0
 62
     0
370
    -2
100
AcDbLine
 10
1437.30682007495
 20
503.7444297332903
 30
0.0
 11
1468.703415896783
 21
503.7444297332903
 31
0.0
  0
LINE
  5
73D
330
72C
100
AcDbEntity
  8
0
 62
     0
370
    -2
100
AcDbLine
 10
1526.946678385284
 20
503.7444297332903
 30
0.0
 11
1495.55008256345
 21
503.7444297332903
 31
0.0
  0
SOLID
  5
73E
330
72C
100
AcDbEntity
  8
0
 62
     0
100
AcDbTrace
 10
1437.30682007495
 20
503.7744297332904
 30
0.0
 11
1437.30682007495
 21
503.7144297332905
 31
0.0
 12
1437.12682007495
 22
503.7444297332903
 32
0.0
 13
1437.12682007495
 23
503.7444297332903
 33
0.0
  0
SOLID
  5
73F
330
72C
100
AcDbEntity
  8
0
 62
     0
100
AcDbTrace
 10
1526.946678385284
 20
503.7744297332904
 30
0.0
 11
1526.946678385284
 21
503.7144297332905
 31
0.0
 12
1527.126678385284
 22
503.7444297332903
 32
0.0
 13
1527.126678385284
 23
503.7444297332903
 33
0.0
  0
MTEXT
  5
740
330
72C
100
AcDbEntity
  8
0
 62
     0
100
AcDbMText
 10
1482.126749230117
 20
503.7444297332903
 30
0.0
 40
10.0
 41
0.0
 46
0.0
 71
     5
 72
     1
  1
\A1;90.0
 73
     1
 44
1.0
  0
POINT
  5
741
330
72C
100
AcDbEntity
  8
Defpoints
 62
     0
100
AcDbPoint
 10
1437.12682007495
 20
496.9739641735818
 30
0.0
  0
POINT
  5
742
330
72C
100
AcDbEntity
  8
Defpoints
 62
     0
100
AcDbPoint
 10
1527.126678385284
 20
502.3814392482924
 30
0.0
  0
POINT
  5
743
330
72C
100
AcDbEntity
  8
Defpoints
 62
     0
100
AcDbPoint
 10
1527.126678385284
 20
503.7444297332903
 30
0.0
  0
ENDBLK
  5
738
330
72C
100
AcDbEntity
  8
0
100
AcDbBlockEnd
  0
BLOCK
  5
769
330
75E
100
AcDbEntity
  8
0
100
AcDbBlockBegin
  2
*D15
 70
     1
 10
0.0
 20
0.0
 30
0.0
  3
*D15
  1

  0
LINE
  5
A40
330
75E
100
AcDbEntity
  8
0
 62
     0
370
    -2
100
AcDbLine
 10
733.1266629406724
 20
454.3189200562081
 30
0.0
 11
733.1266629406724
 21
261.9738896587358
 31
0.0
  0
LINE
  5
A41
330
75E
100
AcDbEntity
  8
0
 62
     0
370
    -2
100
AcDbLine
 10
1587.126678385284
 20
454.3189200562081
 30
0.0
 11
1587.126678385284
 21
261.9738896587358
 31
0.0
  0
LINE
  5
A42
330
75E
100
AcDbEntity
  8
0
 62
     0
370
    -2
100
AcDbLine
 10
733.3066629406723
 20
262.1538896587358
 30
0.0
 11
1140.870003996311
 21
262.1538896587358
 31
0.0
  0
LINE
  5
A43
330
75E
100
AcDbEntity
  8
0
 62
     0
370
    -2
100
AcDbLine
 10
1586.946678385284
 20
262.1538896587358
 30
0.0
 11
1179.383337329644
 21
262.1538896587358
 31
0.0
  0
SOLID
  5
A44
330
75E
100
AcDbEntity
  8
0
 62
     0
100
AcDbTrace
 10
733.3066629406723
 20
262.1838896587358
 30
0.0
 11
733.3066629406723
 21
262.1238896587358
 31
0.0
 12
733.1266629406724
 22
262.1538896587358
 32
0.0
 13
733.1266629406724
 23
262.1538896587358
 33
0.0
  0
SOLID
  5
A45
330
75E
100
AcDbEntity
  8
0
 62
     0
100
AcDbTrace
 10
1586.946678385284
 20
262.1838896587358
 30
0.0
 11
1586.946678385284
 21
262.1238896587358
 31
0.0
 12
1587.126678385284
 22
262.1538896587358
 32
0.0
 13
1587.126678385284
 23
262.1538896587358
 33
0.0
  0
MTEXT
  5
A46
330
75E
100
AcDbEntity
  8
0
 62
     0
100
AcDbMText
 10
1160.126670662978
 20
262.1538896587358
 30
0.0
 40
10.0
 41
0.0
 46
0.0
 71
     5
 72
     1
  1
\A1;854.0
 73
     1
 44
1.0
  0
POINT
  5
A47
330
75E
100
AcDbEntity
  8
Defpoints
 62
     0
100
AcDbPoint
 10
733.1266629406724
 20
454.3814200562081
 30
0.0
  0
POINT
  5
A48
330
75E
100
AcDbEntity
  8
Defpoints
 62
     0
100
AcDbPoint
 10
1587.126678385284
 20
454.3814200562081
 30
0.0
  0
POINT
  5
A49
330
75E
100
AcDbEntity
  8
Defpoints
 62
     0
100
AcDbPoint
 10
1587.126678385284
 20
262.1538896587358
 30
0.0
  0
ENDBLK
  5
76A
330
75E
100
AcDbEntity
  8
0
100
AcDbBlockEnd
  0
BLOCK
  5
783
330
778
100
AcDbEntity
  8
0
100
AcDbBlockBegin
  2
*D16
 70
     1
 10
0.0
 20
0.0
 30
0.0
  3
*D16
  1

  0
LINE
  5
A2C
330
778
100
AcDbEntity
  8
0
 62
     0
370
    -2
100
AcDbLine
 10
983.0641711031811
 20
331.3812529049092
 30
0.0
 11
684.2059291501856
 21
331.3812529049093
 31
0.0
  0
LINE
  5
A2D
330
778
100
AcDbEntity
  8
0
 62
     0
370
    -2
100
AcDbLine
 10
983.0641711031811
 20
846.381621575038
 30
0.0
 11
684.2059291501857
 21
846.381621575038
 31
0.0
  0
LINE
  5
A2E
330
778
100
AcDbEntity
  8
0
 62
     0
370
    -2
100
AcDbLine
 10
684.3859291501855
 20
331.5612529049093
 30
0.0
 11
684.3859291501855
 21
583.7914372399736
 31
0.0
  0
LINE
  5
A2F
330
778
100
AcDbEntity
  8
0
 62
     0
370
    -2
100
AcDbLine
 10
684.3859291501857
 20
846.2016215750381
 30
0.0
 11
684.3859291501855
 21
593.9714372399737
 31
0.0
  0
SOLID
  5
A30
330
778
100
AcDbEntity
  8
0
 62
     0
100
AcDbTrace
 10
684.3559291501856
 20
331.5612529049093
 30
0.0
 11
684.4159291501855
 21
331.5612529049093
 31
0.0
 12
684.3859291501855
 22
331.3812529049093
 32
0.0
 13
684.3859291501855
 23
331.3812529049093
 33
0.0
  0
SOLID
  5
A31
330
778
100
AcDbEntity
  8
0
 62
     0
100
AcDbTrace
 10
684.3559291501857
 20
846.2016215750381
 30
0.0
 11
684.4159291501856
 21
846.2016215750381
 31
0.0
 12
684.3859291501857
 22
846.381621575038
 32
0.0
 13
684.3859291501857
 23
846.381621575038
 33
0.0
  0
MTEXT
  5
A32
330
778
100
AcDbEntity
  8
0
 62
     0
100
AcDbMText
 10
684.3859291501854
 20
588.8814372399738
 30
0.0
 40
10.0
 41
0.0
 46
0.0
 71
     5
 72
     1
  1
\A1;515.0
 73
     1
 44
1.0
  0
POINT
  5
A33
330
778
100
AcDbEntity
  8
Defpoints
 62
     0
100
AcDbPoint
 10
983.126671103181
 20
331.3812529049092
 30
0.0
  0
POINT
  5
A34
330
778
100
AcDbEntity
  8
Defpoints
 62
     0
100
AcDbPoint
 10
983.126671103181
 20
846.381621575038
 30
0.0
  0
POINT
  5
A35
330
778
100
AcDbEntity
  8
Defpoints
 62
     0
100
AcDbPoint
 10
684.3859291501857
 20
846.381621575038
 30
0.0
  0
ENDBLK
  5
784
330
778
100
AcDbEntity
  8
0
100
AcDbBlockEnd
  0
BLOCK
  5
79D
330
792
100
AcDbEntity
  8
0
100
AcDbBlockBegin
  2
*D17
 70
     1
 10
0.0
 20
0.0
 30
0.0
  3
*D17
  1

  0
LINE
  5
AC2
330
792
100
AcDbEntity
  8
0
 62
     0
370
    -2
100
AcDbLine
 10
2034.132968439291
 20
855.6897440997532
 30
0.0
 11
1738.694100504919
 21
855.6897440997534
 31
0.0
  0
LINE
  5
AC3
330
792
100
AcDbEntity
  8
0
 62
     0
370
    -2
100
AcDbLine
 10
2034.132968439291
 20
290.6896617085034
 30
0.0
 11
1738.694100504919
 21
290.6896617085034
 31
0.0
  0
LINE
  5
AC4
330
792
100
AcDbEntity
  8
0
 62
     0
370
    -2
100
AcDbLine
 10
1738.874100504919
 20
855.5097440997535
 30
0.0
 11
1738.874100504919
 21
578.2797029041285
 31
0.0
  0
LINE
  5
AC5
330
792
100
AcDbEntity
  8
0
 62
     0
370
    -2
100
AcDbLine
 10
1738.874100504919
 20
290.8696617085034
 30
0.0
 11
1738.874100504919
 21
568.0997029041284
 31
0.0
  0
SOLID
  5
AC6
330
792
100
AcDbEntity
  8
0
 62
     0
100
AcDbTrace
 10
1738.844100504919
 20
855.5097440997535
 30
0.0
 11
1738.904100504919
 21
855.5097440997535
 31
0.0
 12
1738.874100504919
 22
855.6897440997534
 32
0.0
 13
1738.874100504919
 23
855.6897440997534
 33
0.0
  0
SOLID
  5
AC7
330
792
100
AcDbEntity
  8
0
 62
     0
100
AcDbTrace
 10
1738.844100504919
 20
290.8696617085034
 30
0.0
 11
1738.904100504919
 21
290.8696617085034
 31
0.0
 12
1738.874100504919
 22
290.6896617085034
 32
0.0
 13
1738.874100504919
 23
290.6896617085034
 33
0.0
  0
MTEXT
  5
AC8
330
792
100
AcDbEntity
  8
0
 62
     0
100
AcDbMText
 10
1738.874100504919
 20
573.1897029041286
 30
0.0
 40
10.0
 41
0.0
 46
0.0
 71
     5
 72
     1
  1
\A1;565.0
 73
     1
 44
1.0
  0
POINT
  5
AC9
330
792
100
AcDbEntity
  8
Defpoints
 62
     0
100
AcDbPoint
 10
2034.195468439291
 20
855.6897440997532
 30
0.0
  0
POINT
  5
ACA
330
792
100
AcDbEntity
  8
Defpoints
 62
     0
100
AcDbPoint
 10
2034.195468439291
 20
290.6896617085034
 30
0.0
  0
POINT
  5
ACB
330
792
100
AcDbEntity
  8
Defpoints
 62
     0
100
AcDbPoint
 10
1738.874100504919
 20
290.6896617085034
 30
0.0
  0
ENDBLK
  5
79E
330
792
100
AcDbEntity
  8
0
100
AcDbBlockEnd
  0
BLOCK
  5
7B7
330
7AC
100
AcDbEntity
  8
0
100
AcDbBlockBegin
  2
*D18
 70
     1
 10
0.0
 20
0.0
 30
0.0
  3
*D18
  1

  0
LINE
  5
AB8
330
7AC
100
AcDbEntity
  8
0
 62
     0
370
    -2
100
AcDbLine
 10
1797.195460627188
 20
407.6272505537589
 30
0.0
 11
1797.195460627188
 21
197.9984725368387
 31
0.0
  0
LINE
  5
AB9
330
7AC
100
AcDbEntity
  8
0
 62
     0
370
    -2
100
AcDbLine
 10
2533.195525624568
 20
407.6272505537586
 30
0.0
 11
2533.195525624568
 21
197.9984725368387
 31
0.0
  0
LINE
  5
ABA
330
7AC
100
AcDbEntity
  8
0
 62
     0
370
    -2
100
AcDbLine
 10
1797.375460627188
 20
198.1784725368387
 30
0.0
 11
2145.938826459211
 21
198.1784725368387
 31
0.0
  0
LINE
  5
ABB
330
7AC
100
AcDbEntity
  8
0
 62
     0
370
    -2
100
AcDbLine
 10
2533.015525624568
 20
198.1784725368387
 30
0.0
 11
2184.452159792545
 21
198.1784725368387
 31
0.0
  0
SOLID
  5
ABC
330
7AC
100
AcDbEntity
  8
0
 62
     0
100
AcDbTrace
 10
1797.375460627188
 20
198.2084725368387
 30
0.0
 11
1797.375460627188
 21
198.1484725368387
 31
0.0
 12
1797.195460627188
 22
198.1784725368387
 32
0.0
 13
1797.195460627188
 23
198.1784725368387
 33
0.0
  0
SOLID
  5
ABD
330
7AC
100
AcDbEntity
  8
0
 62
     0
100
AcDbTrace
 10
2533.015525624568
 20
198.2084725368387
 30
0.0
 11
2533.015525624568
 21
198.1484725368387
 31
0.0
 12
2533.195525624568
 22
198.1784725368387
 32
0.0
 13
2533.195525624568
 23
198.1784725368387
 33
0.0
  0
MTEXT
  5
ABE
330
7AC
100
AcDbEntity
  8
0
 62
     0
100
AcDbMText
 10
2165.195493125878
 20
198.1784725368387
 30
0.0
 40
10.0
 41
0.0
 46
0.0
 71
     5
 72
     1
  1
\A1;736.0
 73
     1
 44
1.0
  0
POINT
  5
ABF
330
7AC
100
AcDbEntity
  8
Defpoints
 62
     0
100
AcDbPoint
 10
1797.195460627188
 20
407.6897505537588
 30
0.0
  0
POINT
  5
AC0
330
7AC
100
AcDbEntity
  8
Defpoints
 62
     0
100
AcDbPoint
 10
2533.195525624568
 20
407.6897505537586
 30
0.0
  0
POINT
  5
AC1
330
7AC
100
AcDbEntity
  8
Defpoints
 62
     0
100
AcDbPoint
 10
2533.195525624568
 20
198.1784725368387
 30
0.0
  0
ENDBLK
  5
7B8
330
7AC
100
AcDbEntity
  8
0
100
AcDbBlockEnd
  0
ENDSEC
  0
SECTION
  2
ENTITIES
  0
POLYLINE
  5
42
102
{ACAD_REACTORS
330
21B
102
}
330
1F
100
AcDbEntity
  8
0
 62
     2
100
AcDb2dPolyline
 66
     1
 10
0.0
 20
0.0
 30
0.0
  0
VERTEX
  5
43
102
{ACAD_REACTORS
330
21B
102
}
330
42
100
AcDbEntity
  8
0
 62
     2
100
AcDbVertex
100
AcDb2dVertex
 10
980.626677669227
 20
726.3814412916473
 30
0.0
  0
VERTEX
  5
44
330
42
100
AcDbEntity
  8
0
 62
     2
100
AcDbVertex
100
AcDb2dVertex
 10
1339.62678579377
 20
726.3814412916473
 30
0.0
  0
SEQEND
  5
45
330
42
100
AcDbEntity
  8
0
 62
     2
  0
POLYLINE
  5
4A
330
1F
100
AcDbEntity
  8
0
 62
     2
100
AcDb2dPolyline
 66
     1
 10
0.0
 20
0.0
 30
0.0
  0
VERTEX
  5
4B
330
4A
100
AcDbEntity
  8
0
 62
     2
100
AcDbVertex
100
AcDb2dVertex
 10
980.1266842352729
 20
726.3814412916473
 30
0.0
  0
VERTEX
  5
4C
330
4A
100
AcDbEntity
  8
0
 62
     2
100
AcDbVertex
100
AcDb2dVertex
 10
980.1266842352729
 20
701.3814213738952
 30
0.0
  0
SEQEND
  5
4D
330
4A
100
AcDbEntity
  8
0
 62
     2
  0
POLYLINE
  5
52
330
1F
100
AcDbEntity
  8
0
 62
     2
100
AcDb2dPolyline
 66
     1
 10
0.0
 20
0.0
 30
0.0
  0
VERTEX
  5
53
330
52
100
AcDbEntity
  8
0
 62
     2
100
AcDbVertex
100
AcDb2dVertex
 10
980.1266842352729
 20
451.3814331882998
 30
0.0
  0
VERTEX
  5
54
330
52
100
AcDbEntity
  8
0
 62
     2
100
AcDbVertex
100
AcDb2dVertex
 10
980.1266842352729
 20
701.3814213738952
 30
0.0
  0
SEQEND
  5
55
330
52
100
AcDbEntity
  8
0
 62
     2
  0
POLYLINE
  5
56
330
1F
100
AcDbEntity
  8
0
 62
     2
100
AcDb2dPolyline
 66
     1
 10
0.0
 20
0.0
 30
0.0
  0
VERTEX
  5
57
330
56
100
AcDbEntity
  8
0
 62
     2
100
AcDbVertex
100
AcDb2dVertex
 10
1340.126814543395
 20
726.3814412916473
 30
0.0
  0
VERTEX
  5
58
330
56
100
AcDbEntity
  8
0
 62
     2
100
AcDbVertex
100
AcDb2dVertex
 10
1340.126814543395
 20
701.3814213738952
 30
0.0
  0
SEQEND
  5
59
330
56
100
AcDbEntity
  8
0
 62
     2
  0
POLYLINE
  5
5E
330
1F
100
AcDbEntity
  8
0
 62
     2
100
AcDb2dPolyline
 66
     1
 10
0.0
 20
0.0
 30
0.0
  0
VERTEX
  5
5F
330
5E
100
AcDbEntity
  8
0
 62
     2
100
AcDbVertex
100
AcDb2dVertex
 10
1340.126814543395
 20
451.3814331882998
 30
0.0
  0
VERTEX
  5
60
330
5E
100
AcDbEntity
  8
0
 62
     2
100
AcDbVertex
100
AcDb2dVertex
 10
1340.126814543395
 20
701.3814213738952
 30
0.0
  0
SEQEND
  5
61
330
5E
100
AcDbEntity
  8
0
 62
     2
  0
POLYLINE
  5
62
102
{ACAD_REACTORS
330
721
102
}
330
1F
100
AcDbEntity
  8
0
 62
     2
100
AcDb2dPolyline
 66
     1
 10
0.0
 20
0.0
 30
0.0
  0
VERTEX
  5
63
102
{ACAD_REACTORS
330
721
102
}
330
62
100
AcDbEntity
  8
0
 62
     2
100
AcDbVertex
100
AcDb2dVertex
 10
860.1266548646981
 20
726.3814412916473
 30
0.0
  0
VERTEX
  5
64
330
62
100
AcDbEntity
  8
0
 62
     2
100
AcDbVertex
100
AcDb2dVertex
 10
860.1266548646981
 20
451.3814331882998
 30
0.0
  0
SEQEND
  5
65
330
62
100
AcDbEntity
  8
0
 62
     2
  0
POLYLINE
  5
6E
330
1F
100
AcDbEntity
  8
0
 62
     2
100
AcDb2dPolyline
 66
     1
 10
0.0
 20
0.0
 30
0.0
  0
VERTEX
  5
6F
330
6E
100
AcDbEntity
  8
0
 62
     2
100
AcDbVertex
100
AcDb2dVertex
 10
1460.126775632006
 20
726.3814412916473
 30
0.0
  0
VERTEX
  5
70
330
6E
100
AcDbEntity
  8
0
 62
     2
100
AcDbVertex
100
AcDb2dVertex
 10
1460.126775632006
 20
451.3814331882998
 30
0.0
  0
SEQEND
  5
71
330
6E
100
AcDbEntity
  8
0
 62
     2
  0
POLYLINE
  5
7A
330
1F
100
AcDbEntity
  8
0
 62
     2
100
AcDb2dPolyline
 66
     1
 10
0.0
 20
0.0
 30
0.0
  0
VERTEX
  5
7B
330
7A
100
AcDbEntity
  8
0
 62
     2
100
AcDbVertex
100
AcDb2dVertex
 10
853.1266811288812
 20
723.3814544237388
 30
0.0
  0
VERTEX
  5
7C
330
7A
100
AcDbEntity
  8
0
 62
     2
100
AcDbVertex
100
AcDb2dVertex
 10
853.1266811288812
 20
454.3814200562081
 30
0.0
  0
SEQEND
  5
7D
330
7A
100
AcDbEntity
  8
0
 62
     2
  0
POLYLINE
  5
7E
330
1F
100
AcDbEntity
  8
0
 62
     2
100
AcDb2dPolyline
 66
     1
 10
0.0
 20
0.0
 30
0.0
  0
VERTEX
  5
7F
330
7E
100
AcDbEntity
  8
0
 62
     2
100
AcDbVertex
100
AcDb2dVertex
 10
1467.12682007495
 20
723.3814544237388
 30
0.0
  0
VERTEX
  5
80
330
7E
100
AcDbEntity
  8
0
 62
     2
100
AcDbVertex
100
AcDb2dVertex
 10
1467.12682007495
 20
454.3814200562081
 30
0.0
  0
SEQEND
  5
81
330
7E
100
AcDbEntity
  8
0
 62
     2
  0
POLYLINE
  5
CB
330
1F
100
AcDbEntity
  8
0
 62
     1
100
AcDb2dPolyline
 66
     1
 10
0.0
 20
0.0
 30
0.0
  0
VERTEX
  5
CC
330
CB
100
AcDbEntity
  8
0
 62
     1
100
AcDbVertex
100
AcDb2dVertex
 10
980.626677669227
 20
726.3814412916473
 30
0.0
  0
VERTEX
  5
CD
330
CB
100
AcDbEntity
  8
0
 62
     1
100
AcDbVertex
100
AcDb2dVertex
 10
860.1266548646981
 20
726.3814412916473
 30
0.0
  0
SEQEND
  5
CE
330
CB
100
AcDbEntity
  8
0
 62
     1
  0
POLYLINE
  5
D3
330
1F
100
AcDbEntity
  8
0
 62
     1
100
AcDb2dPolyline
 66
     1
 10
0.0
 20
0.0
 30
0.0
  0
VERTEX
  5
D4
330
D3
100
AcDbEntity
  8
0
 62
     1
100
AcDbVertex
100
AcDb2dVertex
 10
983.126671103181
 20
846.381621575038
 30
0.0
  0
VERTEX
  5
D5
330
D3
100
AcDbEntity
  8
0
 62
     1
100
AcDbVertex
100
AcDb2dVertex
 10
1337.126792321922
 20
846.381621575038
 30
0.0
  0
SEQEND
  5
D6
330
D3
100
AcDbEntity
  8
0
 62
     1
  0
POLYLINE
  5
EF
330
1F
100
AcDbEntity
  8
0
 62
     1
100
AcDb2dPolyline
 66
     1
 10
0.0
 20
0.0
 30
0.0
  0
VERTEX
  5
F0
330
EF
100
AcDbEntity
  8
0
 62
     1
100
AcDbVertex
100
AcDb2dVertex
 10
860.1266548646981
 20
726.3814412916473
 30
0.0
  0
VERTEX
  5
F1
330
EF
100
AcDbEntity
  8
0
 62
     1
100
AcDbVertex
100
AcDb2dVertex
 10
853.1266811288812
 20
723.3814544237388
 30
0.0
  0
SEQEND
  5
F2
330
EF
100
AcDbEntity
  8
0
 62
     1
  0
POLYLINE
  5
F7
330
1F
100
AcDbEntity
  8
0
 62
     1
100
AcDb2dPolyline
 66
     1
 10
0.0
 20
0.0
 30
0.0
  0
VERTEX
  5
F8
330
F7
100
AcDbEntity
  8
0
 62
     1
100
AcDbVertex
100
AcDb2dVertex
 10
1460.126775632006
 20
726.3814412916473
 30
0.0
  0
VERTEX
  5
F9
330
F7
100
AcDbEntity
  8
0
 62
     1
100
AcDbVertex
100
AcDb2dVertex
 10
1467.12682007495
 20
723.3814544237388
 30
0.0
  0
SEQEND
  5
FA
330
F7
100
AcDbEntity
  8
0
 62
     1
  0
POLYLINE
  5
160
330
1F
100
AcDbEntity
  8
0
 62
     1
100
AcDb2dPolyline
 66
     1
 10
0.0
 20
0.0
 30
0.0
  0
VERTEX
  5
161
330
160
100
AcDbEntity
  8
0
 62
     1
100
AcDbVertex
100
AcDb2dVertex
 10
853.1266670515075
 20
844.8816104643022
 30
0.0
  0
VERTEX
  5
162
330
160
100
AcDbEntity
  8
0
 62
     1
100
AcDbVertex
100
AcDb2dVertex
 10
981.6266600303379
 20
844.8816104643022
 30
0.0
  0
SEQEND
  5
163
330
160
100
AcDbEntity
  8
0
 62
     1
  0
POLYLINE
  5
164
102
{ACAD_REACTORS
330
790
102
}
330
1F
100
AcDbEntity
  8
0
 62
     1
100
AcDb2dPolyline
 66
     1
 10
0.0
 20
0.0
 30
0.0
  0
VERTEX
  5
165
102
{ACAD_REACTORS
330
790
102
}
330
164
100
AcDbEntity
  8
0
 62
     1
100
AcDbVertex
100
AcDb2dVertex
 10
981.6266600303379
 20
844.8816104643022
 30
0.0
  0
VERTEX
  5
166
330
164
100
AcDbEntity
  8
0
 62
     1
100
AcDbVertex
100
AcDb2dVertex
 10
983.126671103181
 20
846.381621575038
 30
0.0
  0
SEQEND
  5
167
330
164
100
AcDbEntity
  8
0
 62
     1
  0
POLYLINE
  5
171
330
1F
100
AcDbEntity
  8
0
 62
     1
100
AcDb2dPolyline
 66
     1
 10
0.0
 20
0.0
 30
0.0
  0
VERTEX
  5
172
330
171
100
AcDbEntity
  8
0
 62
     1
100
AcDbVertex
100
AcDb2dVertex
 10
1467.126728407409
 20
844.8816104643022
 30
0.0
  0
VERTEX
  5
173
330
171
100
AcDbEntity
  8
0
 62
     1
100
AcDbVertex
100
AcDb2dVertex
 10
1338.626803432659
 20
844.8816104643022
 30
0.0
  0
SEQEND
  5
174
330
171
100
AcDbEntity
  8
0
 62
     1
  0
POLYLINE
  5
175
330
1F
100
AcDbEntity
  8
0
 62
     1
100
AcDb2dPolyline
 66
     1
 10
0.0
 20
0.0
 30
0.0
  0
VERTEX
  5
176
330
175
100
AcDbEntity
  8
0
 62
     1
100
AcDbVertex
100
AcDb2dVertex
 10
1338.626803432659
 20
844.8816104643022
 30
0.0
  0
VERTEX
  5
177
330
175
100
AcDbEntity
  8
0
 62
     1
100
AcDbVertex
100
AcDb2dVertex
 10
1337.126792321922
 20
846.381621575038
 30
0.0
  0
SEQEND
  5
178
330
175
100
AcDbEntity
  8
0
 62
     1
  0
DIMENSION
  5
1E7
330
1F
100
AcDbEntity
  8
0
100
AcDbDimension
  2
*D1
 10
1340.126814543395
 20
620.1030505432111
 30
0.0
 11
1160.126749389334
 21
620.1030505432111
 31
0.0
 70
    32
 71
     5
 42
360.0001303081219
 73
     0
 74
     0
 75
     0
  3
Standard
100
AcDbAlignedDimension
 13
980.1266842352729
 23
616.8992717851413
 33
0.0
 14
1340.126814543395
 24
616.8992717851413
 34
0.0
100
AcDbRotatedDimension
  0
DIMENSION
  5
202
102
{ACAD_XDICTIONARY
360
210
102
}
102
{ACAD_REACTORS
330
21B
102
}
330
1F
100
AcDbEntity
  8
0
100
AcDbDimension
  2
*D2
 10
1265.265129490496
 20
451.3814331882998
 30
0.0
 11
1265.265129490496
 21
588.8814372399736
 31
0.0
 70
    32
 71
     5
 42
275.0000081033474
 73
     0
 74
     0
 75
     0
  3
Standard
100
AcDbAlignedDimension
 13
1273.508834118147
 23
726.3814412916473
 33
0.0
 14
1273.508834118147
 24
451.3814331882998
 34
0.0
 50
90.0
100
AcDbRotatedDimension
  0
DIMENSION
  5
21C
330
1F
100
AcDbEntity
  8
0
100
AcDbDimension
  2
*D3
 10
1460.126775632006
 20
634.763110771629
 30
0.0
 11
1400.1267950877
 21
634.763110771629
 31
0.0
 70
    32
 71
     5
 42
119.9999610886111
 73
     0
 74
     0
 75
     0
  3
Standard
100
AcDbAlignedDimension
 13
1340.126814543395
 23
634.3054280919048
 33
0.0
 14
1460.126775632006
 24
634.3054280919048
 34
0.0
100
AcDbRotatedDimension
  0
POLYLINE
  5
3C2
102
{ACAD_REACTORS
330
51F
330
6B1
102
}
330
1F
100
AcDbEntity
  8
0
 62
     2
100
AcDb2dPolyline
 66
     1
 10
0.0
 20
0.0
 30
0.0
  0
VERTEX
  5
3C3
102
{ACAD_REACTORS
330
51F
330
6B1
102
}
330
3C2
100
AcDbEntity
  8
0
 62
     2
100
AcDbVertex
100
AcDb2dVertex
 10
2297.668138322066
 20
404.6895783541694
 30
0.0
  0
VERTEX
  5
3C4
330
3C2
100
AcDbEntity
  8
0
 62
     2
100
AcDbVertex
100
AcDb2dVertex
 10
2032.695457328555
 20
404.6895783541698
 30
0.0
  0
SEQEND
  5
3C5
330
3C2
100
AcDbEntity
  8
0
 62
     2
  0
POLYLINE
  5
3C6
102
{ACAD_REACTORS
330
51F
102
}
330
1F
100
AcDbEntity
  8
0
 62
     2
100
AcDb2dPolyline
 66
     1
 10
0.0
 20
0.0
 30
0.0
  0
VERTEX
  5
3C7
102
{ACAD_REACTORS
330
51F
102
}
330
3C6
100
AcDbEntity
  8
0
 62
     2
100
AcDbVertex
100
AcDb2dVertex
 10
2297.695528923201
 20
741.6897590963348
 30
0.0
  0
VERTEX
  5
3C8
330
3C6
100
AcDbEntity
  8
0
 62
     2
100
AcDbVertex
100
AcDb2dVertex
 10
2032.695457328555
 20
741.6897590963351
 30
0.0
  0
SEQEND
  5
3C9
330
3C6
100
AcDbEntity
  8
0
 62
     2
  0
POLYLINE
  5
3CA
330
1F
100
AcDbEntity
  8
0
 62
     2
100
AcDb2dPolyline
 66
     1
 10
0.0
 20
0.0
 30
0.0
  0
VERTEX
  5
3CB
330
3CA
100
AcDbEntity
  8
0
 62
     2
100
AcDbVertex
100
AcDb2dVertex
 10
2298.195522357156
 20
404.6895783541694
 30
0.0
  0
VERTEX
  5
3CC
330
3CA
100
AcDbEntity
  8
0
 62
     2
100
AcDbVertex
100
AcDb2dVertex
 10
2298.195522357156
 20
708.6897624382348
 30
0.0
  0
SEQEND
  5
3CD
330
3CA
100
AcDbEntity
  8
0
 62
     2
  0
POLYLINE
  5
3D2
330
1F
100
AcDbEntity
  8
0
 62
     2
100
AcDb2dPolyline
 66
     1
 10
0.0
 20
0.0
 30
0.0
  0
VERTEX
  5
3D3
330
3D2
100
AcDbEntity
  8
0
 62
     2
100
AcDbVertex
100
AcDb2dVertex
 10
2298.195522357156
 20
741.6897590963348
 30
0.0
  0
VERTEX
  5
3D4
330
3D2
100
AcDbEntity
  8
0
 62
     2
100
AcDbVertex
100
AcDb2dVertex
 10
2298.195522357156
 20
708.6897624382348
 30
0.0
  0
SEQEND
  5
3D5
330
3D2
100
AcDbEntity
  8
0
 62
     2
  0
POLYLINE
  5
3D6
330
1F
100
AcDbEntity
  8
0
 62
     2
100
AcDb2dPolyline
 66
     1
 10
0.0
 20
0.0
 30
0.0
  0
VERTEX
  5
3D7
330
3D6
100
AcDbEntity
  8
0
 62
     2
100
AcDbVertex
100
AcDb2dVertex
 10
2031.195446217819
 20
404.6895783541698
 30
0.0
  0
VERTEX
  5
3D8
330
3D6
100
AcDbEntity
  8
0
 62
     2
100
AcDbVertex
100
AcDb2dVertex
 10
2031.195446217819
 20
708.6897624382352
 30
0.0
  0
SEQEND
  5
3D9
330
3D6
100
AcDbEntity
  8
0
 62
     2
  0
POLYLINE
  5
3DE
330
1F
100
AcDbEntity
  8
0
 62
     2
100
AcDb2dPolyline
 66
     1
 10
0.0
 20
0.0
 30
0.0
  0
VERTEX
  5
3DF
330
3DE
100
AcDbEntity
  8
0
 62
     2
100
AcDbVertex
100
AcDb2dVertex
 10
2031.195446217819
 20
741.6897590963351
 30
0.0
  0
VERTEX
  5
3E0
330
3DE
100
AcDbEntity
  8
0
 62
     2
100
AcDbVertex
100
AcDb2dVertex
 10
2031.195446217819
 20
708.6897624382352
 30
0.0
  0
SEQEND
  5
3E1
330
3DE
100
AcDbEntity
  8
0
 62
     2
  0
POLYLINE
  5
3E2
330
1F
100
AcDbEntity
  8
0
 62
     2
100
AcDb2dPolyline
 66
     1
 10
0.0
 20
0.0
 30
0.0
  0
VERTEX
  5
3E3
330
3E2
100
AcDbEntity
  8
0
 62
     2
100
AcDbVertex
100
AcDb2dVertex
 10
2412.19550743636
 20
404.6895783541694
 30
0.0
  0
VERTEX
  5
3E4
330
3E2
100
AcDbEntity
  8
0
 62
     2
100
AcDbVertex
100
AcDb2dVertex
 10
2412.19550743636
 20
741.6897590963348
 30
0.0
  0
SEQEND
  5
3E5
330
3E2
100
AcDbEntity
  8
0
 62
     2
  0
POLYLINE
  5
3EA
330
1F
100
AcDbEntity
  8
0
 62
     2
100
AcDb2dPolyline
 66
     1
 10
0.0
 20
0.0
 30
0.0
  0
VERTEX
  5
3EB
330
3EA
100
AcDbEntity
  8
0
 62
     2
100
AcDbVertex
100
AcDb2dVertex
 10
2034.195468439291
 20
403.1895672434336
 30
0.0
  0
VERTEX
  5
3EC
330
3EA
100
AcDbEntity
  8
0
 62
     2
100
AcDbVertex
100
AcDb2dVertex
 10
2034.195468439291
 20
290.6896617085034
 30
0.0
  0
SEQEND
  5
3ED
330
3EA
100
AcDbEntity
  8
0
 62
     2
  0
POLYLINE
  5
3EE
330
1F
100
AcDbEntity
  8
0
 62
     2
100
AcDb2dPolyline
 66
     1
 10
0.0
 20
0.0
 30
0.0
  0
VERTEX
  5
3EF
330
3EE
100
AcDbEntity
  8
0
 62
     2
100
AcDbVertex
100
AcDb2dVertex
 10
1917.195529572152
 20
404.68957835417
 30
0.0
  0
VERTEX
  5
3F0
330
3EE
100
AcDbEntity
  8
0
 62
     2
100
AcDbVertex
100
AcDb2dVertex
 10
1917.195529572152
 20
741.6897590963351
 30
0.0
  0
SEQEND
  5
3F1
330
3EE
100
AcDbEntity
  8
0
 62
     2
  0
POLYLINE
  5
3F6
102
{ACAD_REACTORS
330
6F9
102
}
330
1F
100
AcDbEntity
  8
0
 62
     2
100
AcDb2dPolyline
 66
     1
 10
0.0
 20
0.0
 30
0.0
  0
VERTEX
  5
3F7
102
{ACAD_REACTORS
330
6F9
102
}
330
3F6
100
AcDbEntity
  8
0
 62
     2
100
AcDbVertex
100
AcDb2dVertex
 10
2034.195468439291
 20
743.189734891401
 30
0.0
  0
VERTEX
  5
3F8
330
3F6
100
AcDbEntity
  8
0
 62
     2
100
AcDbVertex
100
AcDb2dVertex
 10
2034.195468439291
 20
855.6897440997532
 30
0.0
  0
SEQEND
  5
3F9
330
3F6
100
AcDbEntity
  8
0
 62
     2
  0
POLYLINE
  5
3FA
330
1F
100
AcDbEntity
  8
0
 62
     2
100
AcDb2dPolyline
 66
     1
 10
0.0
 20
0.0
 30
0.0
  0
VERTEX
  5
3FB
330
3FA
100
AcDbEntity
  8
0
 62
     2
100
AcDbVertex
100
AcDb2dVertex
 10
2419.195516449953
 20
407.6897505537586
 30
0.0
  0
VERTEX
  5
3FC
330
3FA
100
AcDbEntity
  8
0
 62
     2
100
AcDbVertex
100
AcDb2dVertex
 10
2419.195516449955
 20
738.6897369506495
 30
0.0
  0
SEQEND
  5
3FD
330
3FA
100
AcDbEntity
  8
0
 62
     2
  0
POLYLINE
  5
3FE
330
1F
100
AcDbEntity
  8
0
 62
     2
100
AcDb2dPolyline
 66
     1
 10
0.0
 20
0.0
 30
0.0
  0
VERTEX
  5
3FF
330
3FE
100
AcDbEntity
  8
0
 62
     2
100
AcDbVertex
100
AcDb2dVertex
 10
1910.195485129208
 20
407.6897505537588
 30
0.0
  0
VERTEX
  5
400
330
3FE
100
AcDbEntity
  8
0
 62
     2
100
AcDbVertex
100
AcDb2dVertex
 10
1910.195485129208
 20
738.6897369506497
 30
0.0
  0
SEQEND
  5
401
330
3FE
100
AcDbEntity
  8
0
 62
     2
  0
POLYLINE
  5
406
330
1F
100
AcDbEntity
  8
0
 62
     1
100
AcDb2dPolyline
 66
     1
 10
0.0
 20
0.0
 30
0.0
  0
VERTEX
  5
407
330
406
100
AcDbEntity
  8
0
 62
     1
100
AcDbVertex
100
AcDb2dVertex
 10
2031.195446217819
 20
404.6895783541698
 30
0.0
  0
VERTEX
  5
408
330
406
100
AcDbEntity
  8
0
 62
     1
100
AcDbVertex
100
AcDb2dVertex
 10
2032.695457328555
 20
404.6895783541698
 30
0.0
  0
SEQEND
  5
409
330
406
100
AcDbEntity
  8
0
 62
     1
  0
POLYLINE
  5
40E
330
1F
100
AcDbEntity
  8
0
 62
     1
100
AcDb2dPolyline
 66
     1
 10
0.0
 20
0.0
 30
0.0
  0
VERTEX
  5
40F
330
40E
100
AcDbEntity
  8
0
 62
     1
100
AcDbVertex
100
AcDb2dVertex
 10
2031.195446217819
 20
741.6897590963351
 30
0.0
  0
VERTEX
  5
410
330
40E
100
AcDbEntity
  8
0
 62
     1
100
AcDbVertex
100
AcDb2dVertex
 10
2032.695457328555
 20
741.6897590963351
 30
0.0
  0
SEQEND
  5
411
330
40E
100
AcDbEntity
  8
0
 62
     1
  0
POLYLINE
  5
44E
330
1F
100
AcDbEntity
  8
0
 62
     1
100
AcDb2dPolyline
 66
     1
 10
0.0
 20
0.0
 30
0.0
  0
VERTEX
  5
44F
330
44E
100
AcDbEntity
  8
0
 62
     1
100
AcDbVertex
100
AcDb2dVertex
 10
2297.695528923201
 20
741.6897590963351
 30
0.0
  0
VERTEX
  5
450
330
44E
100
AcDbEntity
  8
0
 62
     1
100
AcDbVertex
100
AcDb2dVertex
 10
2412.19550743636
 20
741.6897590963348
 30
0.0
  0
SEQEND
  5
451
330
44E
100
AcDbEntity
  8
0
 62
     1
  0
POLYLINE
  5
452
102
{ACAD_REACTORS
330
6B1
102
}
330
1F
100
AcDbEntity
  8
0
 62
     1
100
AcDb2dPolyline
 66
     1
 10
0.0
 20
0.0
 30
0.0
  0
VERTEX
  5
453
102
{ACAD_REACTORS
330
6B1
102
}
330
452
100
AcDbEntity
  8
0
 62
     1
100
AcDbVertex
100
AcDb2dVertex
 10
2295.195535489247
 20
290.6896617085034
 30
0.0
  0
VERTEX
  5
454
330
452
100
AcDbEntity
  8
0
 62
     1
100
AcDbVertex
100
AcDb2dVertex
 10
2034.195468439291
 20
290.6896617085034
 30
0.0
  0
SEQEND
  5
455
330
452
100
AcDbEntity
  8
0
 62
     1
  0
SPLINE
  5
457
330
1F
100
AcDbEntity
  8
0
 62
     1
100
AcDbSpline
210
0.0
220
0.0
230
1.0
 70
     8
 71
     3
 72
     8
 73
     4
 74
     0
 42
0.0000000001
 43
0.0000000001
 40
0.0
 40
0.0
 40
0.0
 40
0.0
 40
1.0
 40
1.0
 40
1.0
 40
1.0
 10
2032.695457328555
 20
404.6895783541698
 30
0.0
 10
2033.52377955057
 20
404.6895783541698
 30
0.0
 10
2034.195468439291
 20
404.0182422432264
 30
0.0
 10
2034.195468439291
 20
403.1895672434336
 30
0.0
  0
POLYLINE
  5
460
330
1F
100
AcDbEntity
  8
0
 62
     1
100
AcDb2dPolyline
 66
     1
 10
0.0
 20
0.0
 30
0.0
  0
VERTEX
  5
461
330
460
100
AcDbEntity
  8
0
 62
     1
100
AcDbVertex
100
AcDb2dVertex
 10
2031.195446217819
 20
404.6895783541698
 30
0.0
  0
VERTEX
  5
462
330
460
100
AcDbEntity
  8
0
 62
     1
100
AcDbVertex
100
AcDb2dVertex
 10
1917.195529572152
 20
404.68957835417
 30
0.0
  0
SEQEND
  5
463
330
460
100
AcDbEntity
  8
0
 62
     1
  0
POLYLINE
  5
464
330
1F
100
AcDbEntity
  8
0
 62
     1
100
AcDb2dPolyline
 66
     1
 10
0.0
 20
0.0
 30
0.0
  0
VERTEX
  5
465
330
464
100
AcDbEntity
  8
0
 62
     1
100
AcDbVertex
100
AcDb2dVertex
 10
2031.195446217819
 20
741.6897590963351
 30
0.0
  0
VERTEX
  5
466
330
464
100
AcDbEntity
  8
0
 62
     1
100
AcDbVertex
100
AcDb2dVertex
 10
1917.195529572152
 20
741.6897590963351
 30
0.0
  0
SEQEND
  5
467
330
464
100
AcDbEntity
  8
0
 62
     1
  0
POLYLINE
  5
468
330
1F
100
AcDbEntity
  8
0
 62
     1
100
AcDb2dPolyline
 66
     1
 10
0.0
 20
0.0
 30
0.0
  0
VERTEX
  5
469
330
468
100
AcDbEntity
  8
0
 62
     1
100
AcDbVertex
100
AcDb2dVertex
 10
2295.195535489248
 20
855.6897440997532
 30
0.0
  0
VERTEX
  5
46A
330
468
100
AcDbEntity
  8
0
 62
     1
100
AcDbVertex
100
AcDb2dVertex
 10
2034.195468439291
 20
855.6897440997532
 30
0.0
  0
SEQEND
  5
46B
330
468
100
AcDbEntity
  8
0
 62
     1
  0
SPLINE
  5
46D
330
1F
100
AcDbEntity
  8
0
 62
     1
100
AcDbSpline
210
0.0
220
0.0
230
1.0
 70
     8
 71
     3
 72
     8
 73
     4
 74
     0
 42
0.0000000001
 43
0.0000000001
 40
0.0
 40
0.0
 40
0.0
 40
0.0
 40
1.0
 40
1.0
 40
1.0
 40
1.0
 10
2034.195468439291
 20
743.189734891401
 30
0.0
 10
2034.195468439291
 20
742.3613068569802
 30
0.0
 10
2033.52377955057
 20
741.6897590963351
 30
0.0
 10
2032.695457328555
 20
741.6897590963351
 30
0.0
  0
POLYLINE
  5
46E
330
1F
100
AcDbEntity
  8
0
 62
     1
100
AcDb2dPolyline
 66
     1
 10
0.0
 20
0.0
 30
0.0
  0
VERTEX
  5
46F
330
46E
100
AcDbEntity
  8
0
 62
     1
100
AcDbVertex
100
AcDb2dVertex
 10
2412.19550743636
 20
404.6895783541694
 30
0.0
  0
VERTEX
  5
470
330
46E
100
AcDbEntity
  8
0
 62
     1
100
AcDbVertex
100
AcDb2dVertex
 10
2419.195516449953
 20
407.6897505537586
 30
0.0
  0
SEQEND
  5
471
330
46E
100
AcDbEntity
  8
0
 62
     1
  0
POLYLINE
  5
472
330
1F
100
AcDbEntity
  8
0
 62
     1
100
AcDb2dPolyline
 66
     1
 10
0.0
 20
0.0
 30
0.0
  0
VERTEX
  5
473
330
472
100
AcDbEntity
  8
0
 62
     1
100
AcDbVertex
100
AcDb2dVertex
 10
2412.19550743636
 20
741.6897590963348
 30
0.0
  0
VERTEX
  5
474
330
472
100
AcDbEntity
  8
0
 62
     1
100
AcDbVertex
100
AcDb2dVertex
 10
2419.195516449955
 20
738.6897369506495
 30
0.0
  0
SEQEND
  5
475
330
472
100
AcDbEntity
  8
0
 62
     1
  0
POLYLINE
  5
476
330
1F
100
AcDbEntity
  8
0
 62
     1
100
AcDb2dPolyline
 66
     1
 10
0.0
 20
0.0
 30
0.0
  0
VERTEX
  5
477
330
476
100
AcDbEntity
  8
0
 62
     1
100
AcDbVertex
100
AcDb2dVertex
 10
1917.195529572152
 20
404.68957835417
 30
0.0
  0
VERTEX
  5
478
330
476
100
AcDbEntity
  8
0
 62
     1
100
AcDbVertex
100
AcDb2dVertex
 10
1910.195485129208
 20
407.6897505537588
 30
0.0
  0
SEQEND
  5
479
330
476
100
AcDbEntity
  8
0
 62
     1
  0
POLYLINE
  5
47A
330
1F
100
AcDbEntity
  8
0
 62
     1
100
AcDb2dPolyline
 66
     1
 10
0.0
 20
0.0
 30
0.0
  0
VERTEX
  5
47B
330
47A
100
AcDbEntity
  8
0
 62
     1
100
AcDbVertex
100
AcDb2dVertex
 10
1917.195529572152
 20
741.6897590963351
 30
0.0
  0
VERTEX
  5
47C
330
47A
100
AcDbEntity
  8
0
 62
     1
100
AcDbVertex
100
AcDb2dVertex
 10
1910.195485129208
 20
738.6897369506497
 30
0.0
  0
SEQEND
  5
47D
330
47A
100
AcDbEntity
  8
0
 62
     1
  0
POLYLINE
  5
482
102
{ACAD_REACTORS
330
7C4
102
}
330
1F
100
AcDbEntity
  8
0
 62
     1
100
AcDb2dPolyline
 66
     1
 10
0.0
 20
0.0
 30
0.0
  0
VERTEX
  5
752
330
482
100
AcDbEntity
  8
0
 62
     1
100
AcDbVertex
100
AcDb2dVertex
 10
2419.195516449955
 20
738.6897369506495
 30
0.0
  0
VERTEX
  5
753
102
{ACAD_REACTORS
330
7C4
102
}
330
482
100
AcDbEntity
  8
0
 62
     1
100
AcDbVertex
100
AcDb2dVertex
 10
2533.195525624569
 20
738.6897369506495
 30
0.0
  0
VERTEX
  5
754
330
482
100
AcDbEntity
  8
0
 62
     1
100
AcDbVertex
100
AcDb2dVertex
 10
2533.195525624568
 20
407.6897505537586
 30
0.0
  0
VERTEX
  5
755
330
482
100
AcDbEntity
  8
0
 62
     1
100
AcDbVertex
100
AcDb2dVertex
 10
2419.195516449953
 20
407.6897505537586
 30
0.0
  0
SEQEND
  5
756
330
482
100
AcDbEntity
  8
0
 62
     1
  0
POLYLINE
  5
4DF
330
1F
100
AcDbEntity
  8
0
 62
     1
100
AcDb2dPolyline
 66
     1
 10
0.0
 20
0.0
 30
0.0
  0
VERTEX
  5
4E0
330
4DF
100
AcDbEntity
  8
0
 62
     1
100
AcDbVertex
100
AcDb2dVertex
 10
2455.19553319449
 20
292.1896728192394
 30
0.0
  0
VERTEX
  5
4E1
330
4DF
100
AcDbEntity
  8
0
 62
     1
100
AcDbVertex
100
AcDb2dVertex
 10
2296.695511284313
 20
292.1896728192394
 30
0.0
  0
SEQEND
  5
4E2
330
4DF
100
AcDbEntity
  8
0
 62
     1
  0
POLYLINE
  5
4E3
330
1F
100
AcDbEntity
  8
0
 62
     1
100
AcDb2dPolyline
 66
     1
 10
0.0
 20
0.0
 30
0.0
  0
VERTEX
  5
4E4
330
4E3
100
AcDbEntity
  8
0
 62
     1
100
AcDbVertex
100
AcDb2dVertex
 10
2296.695511284313
 20
292.1896728192394
 30
0.0
  0
VERTEX
  5
4E5
330
4E3
100
AcDbEntity
  8
0
 62
     1
100
AcDbVertex
100
AcDb2dVertex
 10
2295.195535489247
 20
290.6896617085034
 30
0.0
  0
SEQEND
  5
4E6
330
4E3
100
AcDbEntity
  8
0
 62
     1
  0
SPLINE
  5
4E7
330
1F
100
AcDbEntity
  8
0
 62
     1
100
AcDbSpline
210
0.0
220
0.0
230
1.0
 70
     8
 71
     3
 72
     8
 73
     4
 74
     0
 42
0.0000000001
 43
0.0000000001
 40
0.0
 40
0.0
 40
0.0
 40
0.0
 40
1.0
 40
1.0
 40
1.0
 40
1.0
 10
2034.195468439291
 20
403.1895672434336
 30
0.0
 10
2034.195468439291
 20
402.3612450214185
 30
0.0
 10
2033.52377955057
 20
401.6895561326975
 30
0.0
 10
2032.695457328555
 20
401.6895561326975
 30
0.0
  0
POLYLINE
  5
4E8
330
1F
100
AcDbEntity
  8
0
 62
     1
100
AcDb2dPolyline
 66
     1
 10
0.0
 20
0.0
 30
0.0
  0
VERTEX
  5
4E9
330
4E8
100
AcDbEntity
  8
0
 62
     1
100
AcDbVertex
100
AcDb2dVertex
 10
2032.695457328555
 20
401.6895561326975
 30
0.0
  0
VERTEX
  5
4EA
330
4E8
100
AcDbEntity
  8
0
 62
     1
100
AcDbVertex
100
AcDb2dVertex
 10
1874.195537917111
 20
401.6895561326978
 30
0.0
  0
SEQEND
  5
4EB
330
4E8
100
AcDbEntity
  8
0
 62
     1
  0
POLYLINE
  5
4EC
330
1F
100
AcDbEntity
  8
0
 62
     1
100
AcDb2dPolyline
 66
     1
 10
0.0
 20
0.0
 30
0.0
  0
VERTEX
  5
4ED
330
4EC
100
AcDbEntity
  8
0
 62
     1
100
AcDbVertex
100
AcDb2dVertex
 10
1874.195537917111
 20
401.6895561326978
 30
0.0
  0
VERTEX
  5
4EE
330
4EC
100
AcDbEntity
  8
0
 62
     1
100
AcDbVertex
100
AcDb2dVertex
 10
1874.195537917111
 20
292.1896728192394
 30
0.0
  0
SEQEND
  5
4EF
330
4EC
100
AcDbEntity
  8
0
 62
     1
  0
POLYLINE
  5
4F0
330
1F
100
AcDbEntity
  8
0
 62
     1
100
AcDb2dPolyline
 66
     1
 10
0.0
 20
0.0
 30
0.0
  0
VERTEX
  5
4F1
330
4F0
100
AcDbEntity
  8
0
 62
     1
100
AcDbVertex
100
AcDb2dVertex
 10
1874.195537917111
 20
292.1896728192394
 30
0.0
  0
VERTEX
  5
4F2
330
4F0
100
AcDbEntity
  8
0
 62
     1
100
AcDbVertex
100
AcDb2dVertex
 10
2032.695457328555
 20
292.1896728192394
 30
0.0
  0
SEQEND
  5
4F3
330
4F0
100
AcDbEntity
  8
0
 62
     1
  0
POLYLINE
  5
4F4
102
{ACAD_REACTORS
330
7AA
102
}
330
1F
100
AcDbEntity
  8
0
 62
     1
100
AcDb2dPolyline
 66
     1
 10
0.0
 20
0.0
 30
0.0
  0
VERTEX
  5
4F5
102
{ACAD_REACTORS
330
7AA
102
}
330
4F4
100
AcDbEntity
  8
0
 62
     1
100
AcDbVertex
100
AcDb2dVertex
 10
2032.695457328555
 20
292.1896728192394
 30
0.0
  0
VERTEX
  5
4F6
330
4F4
100
AcDbEntity
  8
0
 62
     1
100
AcDbVertex
100
AcDb2dVertex
 10
2034.195468439291
 20
290.6896617085034
 30
0.0
  0
SEQEND
  5
4F7
330
4F4
100
AcDbEntity
  8
0
 62
     1
  0
POLYLINE
  5
501
330
1F
100
AcDbEntity
  8
0
 62
     1
100
AcDb2dPolyline
 66
     1
 10
0.0
 20
0.0
 30
0.0
  0
VERTEX
  5
502
330
501
100
AcDbEntity
  8
0
 62
     1
100
AcDbVertex
100
AcDb2dVertex
 10
2455.19553319449
 20
854.1897435723498
 30
0.0
  0
VERTEX
  5
503
330
501
100
AcDbEntity
  8
0
 62
     1
100
AcDbVertex
100
AcDb2dVertex
 10
2296.695511284313
 20
854.1897435723498
 30
0.0
  0
SEQEND
  5
504
330
501
100
AcDbEntity
  8
0
 62
     1
  0
POLYLINE
  5
505
330
1F
100
AcDbEntity
  8
0
 62
     1
100
AcDb2dPolyline
 66
     1
 10
0.0
 20
0.0
 30
0.0
  0
VERTEX
  5
506
330
505
100
AcDbEntity
  8
0
 62
     1
100
AcDbVertex
100
AcDb2dVertex
 10
2296.695511284313
 20
854.1897435723498
 30
0.0
  0
VERTEX
  5
507
330
505
100
AcDbEntity
  8
0
 62
     1
100
AcDbVertex
100
AcDb2dVertex
 10
2295.195535489248
 20
855.6897440997532
 30
0.0
  0
SEQEND
  5
508
330
505
100
AcDbEntity
  8
0
 62
     1
  0
SPLINE
  5
509
330
1F
100
AcDbEntity
  8
0
 62
     1
100
AcDbSpline
210
0.0
220
0.0
230
1.0
 70
     8
 71
     3
 72
     8
 73
     4
 74
     0
 42
0.0000000001
 43
0.0000000001
 40
0.0
 40
0.0
 40
0.0
 40
0.0
 40
1.0
 40
1.0
 40
1.0
 40
1.0
 10
2032.695457328555
 20
744.6897459642435
 30
0.0
 10
2033.52377955057
 20
744.6897459642435
 30
0.0
 10
2034.195468439291
 20
744.0181629258216
 30
0.0
 10
2034.195468439291
 20
743.189734891401
 30
0.0
  0
POLYLINE
  5
50A
330
1F
100
AcDbEntity
  8
0
 62
     1
100
AcDb2dPolyline
 66
     1
 10
0.0
 20
0.0
 30
0.0
  0
VERTEX
  5
50B
330
50A
100
AcDbEntity
  8
0
 62
     1
100
AcDbVertex
100
AcDb2dVertex
 10
2032.695457328555
 20
744.6897459642435
 30
0.0
  0
VERTEX
  5
50C
330
50A
100
AcDbEntity
  8
0
 62
     1
100
AcDbVertex
100
AcDb2dVertex
 10
1874.195537917111
 20
744.6897459642435
 30
0.0
  0
SEQEND
  5
50D
330
50A
100
AcDbEntity
  8
0
 62
     1
  0
POLYLINE
  5
50E
102
{ACAD_REACTORS
330
6F9
102
}
330
1F
100
AcDbEntity
  8
0
 62
     1
100
AcDb2dPolyline
 66
     1
 10
0.0
 20
0.0
 30
0.0
  0
VERTEX
  5
50F
102
{ACAD_REACTORS
330
6F9
102
}
330
50E
100
AcDbEntity
  8
0
 62
     1
100
AcDbVertex
100
AcDb2dVertex
 10
1874.195537917111
 20
744.6897459642435
 30
0.0
  0
VERTEX
  5
510
330
50E
100
AcDbEntity
  8
0
 62
     1
100
AcDbVertex
100
AcDb2dVertex
 10
1874.195537917111
 20
854.1897435723502
 30
0.0
  0
SEQEND
  5
511
330
50E
100
AcDbEntity
  8
0
 62
     1
  0
POLYLINE
  5
512
330
1F
100
AcDbEntity
  8
0
 62
     1
100
AcDb2dPolyline
 66
     1
 10
0.0
 20
0.0
 30
0.0
  0
VERTEX
  5
513
330
512
100
AcDbEntity
  8
0
 62
     1
100
AcDbVertex
100
AcDb2dVertex
 10
1874.195537917111
 20
854.1897435723502
 30
0.0
  0
VERTEX
  5
514
330
512
100
AcDbEntity
  8
0
 62
     1
100
AcDbVertex
100
AcDb2dVertex
 10
2032.695457328555
 20
854.1897435723502
 30
0.0
  0
SEQEND
  5
515
330
512
100
AcDbEntity
  8
0
 62
     1
  0
POLYLINE
  5
516
102
{ACAD_REACTORS
330
7AA
102
}
330
1F
100
AcDbEntity
  8
0
 62
     1
100
AcDb2dPolyline
 66
     1
 10
0.0
 20
0.0
 30
0.0
  0
VERTEX
  5
517
102
{ACAD_REACTORS
330
7AA
102
}
330
516
100
AcDbEntity
  8
0
 62
     1
100
AcDbVertex
100
AcDb2dVertex
 10
2032.695457328555
 20
854.1897435723502
 30
0.0
  0
VERTEX
  5
518
330
516
100
AcDbEntity
  8
0
 62
     1
100
AcDbVertex
100
AcDb2dVertex
 10
2034.195468439291
 20
855.6897440997532
 30
0.0
  0
SEQEND
  5
519
330
516
100
AcDbEntity
  8
0
 62
     1
  0
DIMENSION
  5
51A
330
1F
100
AcDbEntity
  8
0
100
AcDbDimension
  2
*D7
 10
2031.195446217819
 20
622.6429500801637
 30
0.0
 11
2164.695484287488
 21
622.6429500801637
 31
0.0
 70
    32
 71
     5
 42
267.0000761393374
 73
     0
 74
     0
 75
     0
  3
Standard
100
AcDbAlignedDimension
 13
2298.195522357156
 23
621.9139462211883
 33
0.0
 14
2031.195446217819
 24
621.9139462211886
 34
0.0
 50
180.0
100
AcDbRotatedDimension
  0
DIMENSION
  5
51D
102
{ACAD_XDICTIONARY
360
51E
102
}
102
{ACAD_REACTORS
330
51F
102
}
330
1F
100
AcDbEntity
  8
0
100
AcDbDimension
  2
*D8
 10
2102.298254588202
 20
741.6897590963351
 30
0.0
 11
2102.298254588202
 21
573.1896687252527
 31
0.0
 70
    32
 71
     5
 42
337.0001807421654
 73
     0
 74
     0
 75
     0
  3
Standard
100
AcDbAlignedDimension
 13
2103.027738120613
 23
404.6895783541697
 33
0.0
 14
2103.027738120614
 24
741.6897590963351
 34
0.0
 50
270.0
100
AcDbRotatedDimension
  0
DIMENSION
  5
520
330
1F
100
AcDbEntity
  8
0
100
AcDbDimension
  2
*D9
 10
1917.195529572152
 20
607.9949378337023
 30
0.0
 11
1974.195487894985
 21
607.9949378337023
 31
0.0
 70
    32
 71
     5
 42
113.9999166456668
 73
     0
 74
     0
 75
     0
  3
Standard
100
AcDbAlignedDimension
 13
2031.195446217819
 23
608.1897437522042
 33
0.0
 14
1917.195529572152
 24
608.1897437522045
 34
0.0
 50
180.0
100
AcDbRotatedDimension
  0
CIRCLE
  5
60E
330
1F
100
AcDbEntity
  8
0
100
AcDbCircle
 10
983.126671103181
 20
731.3814281595559
 30
0.0
 40
0.0000000000001441
  0
ARC
  5
60F
330
1F
100
AcDbEntity
  8
0
 62
     1
100
AcDbCircle
 10
980.626677669227
 20
728.8814347256017
 30
0.0
 40
2.499993433954041
100
AcDbArc
 50
270.0
 51
90.0
  0
POLYLINE
  5
610
330
1F
100
AcDbEntity
  8
0
 62
     1
100
AcDb2dPolyline
 66
     1
 10
0.0
 20
0.0
 30
0.0
  0
VERTEX
  5
611
330
610
100
AcDbEntity
  8
0
 62
     1
100
AcDbVertex
100
AcDb2dVertex
 10
980.626677669227
 20
731.3814281595557
 30
0.0
  0
VERTEX
  5
612
330
610
100
AcDbEntity
  8
0
 62
     1
100
AcDbVertex
100
AcDb2dVertex
 10
853.1266670515075
 20
731.3814281595557
 30
0.0
  0
SEQEND
  5
613
330
610
100
AcDbEntity
  8
0
 62
     1
  0
POLYLINE
  5
614
102
{ACAD_REACTORS
330
6CB
102
}
330
1F
100
AcDbEntity
  8
0
 62
     2
100
AcDb2dPolyline
 66
     1
 10
0.0
 20
0.0
 30
0.0
  0
VERTEX
  5
615
102
{ACAD_REACTORS
330
6CB
102
}
330
614
100
AcDbEntity
  8
0
 62
     2
100
AcDbVertex
100
AcDb2dVertex
 10
983.126671103181
 20
728.8814347256017
 30
0.0
  0
VERTEX
  5
616
330
614
100
AcDbEntity
  8
0
 62
     2
100
AcDbVertex
100
AcDb2dVertex
 10
983.126671103181
 20
846.381621575038
 30
0.0
  0
SEQEND
  5
617
330
614
100
AcDbEntity
  8
0
 62
     2
  0
POLYLINE
  5
618
102
{ACAD_REACTORS
330
6CB
102
}
330
1F
100
AcDbEntity
  8
0
 62
     1
100
AcDb2dPolyline
 66
     1
 10
0.0
 20
0.0
 30
0.0
  0
VERTEX
  5
619
102
{ACAD_REACTORS
330
6CB
102
}
330
618
100
AcDbEntity
  8
0
 62
     1
100
AcDbVertex
100
AcDb2dVertex
 10
853.1266670515075
 20
731.3814281595557
 30
0.0
  0
VERTEX
  5
61A
330
618
100
AcDbEntity
  8
0
 62
     1
100
AcDbVertex
100
AcDb2dVertex
 10
853.1266670515075
 20
844.8816104643022
 30
0.0
  0
SEQEND
  5
61B
330
618
100
AcDbEntity
  8
0
 62
     1
  0
POLYLINE
  5
61C
330
1F
100
AcDbEntity
  8
0
 62
     2
100
AcDb2dPolyline
 66
     1
 10
0.0
 20
0.0
 30
0.0
  0
VERTEX
  5
61D
330
61C
100
AcDbEntity
  8
0
 62
     2
100
AcDbVertex
100
AcDb2dVertex
 10
1337.126792359816
 20
728.8814347256017
 30
0.0
  0
VERTEX
  5
61E
330
61C
100
AcDbEntity
  8
0
 62
     2
100
AcDbVertex
100
AcDb2dVertex
 10
1337.126792359816
 20
846.381621575038
 30
0.0
  0
SEQEND
  5
61F
330
61C
100
AcDbEntity
  8
0
 62
     2
  0
POLYLINE
  5
620
330
1F
100
AcDbEntity
  8
0
 62
     1
100
AcDb2dPolyline
 66
     1
 10
0.0
 20
0.0
 30
0.0
  0
VERTEX
  5
621
330
620
100
AcDbEntity
  8
0
 62
     1
100
AcDbVertex
100
AcDb2dVertex
 10
1339.62678579377
 20
726.3814412916473
 30
0.0
  0
VERTEX
  5
622
330
620
100
AcDbEntity
  8
0
 62
     1
100
AcDbVertex
100
AcDb2dVertex
 10
1460.126808598299
 20
726.3814412916473
 30
0.0
  0
SEQEND
  5
623
330
620
100
AcDbEntity
  8
0
 62
     1
  0
POLYLINE
  5
624
330
1F
100
AcDbEntity
  8
0
 62
     1
100
AcDb2dPolyline
 66
     1
 10
0.0
 20
0.0
 30
0.0
  0
VERTEX
  5
625
330
624
100
AcDbEntity
  8
0
 62
     1
100
AcDbVertex
100
AcDb2dVertex
 10
1339.62678579377
 20
731.3814281595557
 30
0.0
  0
VERTEX
  5
626
330
624
100
AcDbEntity
  8
0
 62
     1
100
AcDbVertex
100
AcDb2dVertex
 10
1467.12679641149
 20
731.3814281595557
 30
0.0
  0
SEQEND
  5
627
330
624
100
AcDbEntity
  8
0
 62
     1
  0
CIRCLE
  5
628
330
1F
100
AcDbEntity
  8
0
100
AcDbCircle
 10
1337.126792359816
 20
731.3814281595559
 30
0.0
 40
0.0000000000001441
  0
ARC
  5
629
330
1F
100
AcDbEntity
  8
0
 62
     1
100
AcDbCircle
 10
1339.62678579377
 20
728.8814347256017
 30
0.0
 40
2.499993433954041
100
AcDbArc
 50
90.0
 51
270.0
  0
POLYLINE
  5
62A
330
1F
100
AcDbEntity
  8
0
 62
     1
100
AcDb2dPolyline
 66
     1
 10
0.0
 20
0.0
 30
0.0
  0
VERTEX
  5
62B
330
62A
100
AcDbEntity
  8
0
 62
     1
100
AcDbVertex
100
AcDb2dVertex
 10
1467.126728407409
 20
731.3814281595556
 30
0.0
  0
VERTEX
  5
62C
330
62A
100
AcDbEntity
  8
0
 62
     1
100
AcDbVertex
100
AcDb2dVertex
 10
1467.126728407409
 20
844.8816104643022
 30
0.0
  0
SEQEND
  5
62D
330
62A
100
AcDbEntity
  8
0
 62
     1
  0
POLYLINE
  5
62E
330
1F
100
AcDbEntity
  8
0
 62
     2
100
AcDb2dPolyline
 66
     1
 10
0.0
 20
0.0
 30
0.0
  0
VERTEX
  5
62F
330
62E
100
AcDbEntity
  8
0
 62
     2
100
AcDbVertex
100
AcDb2dVertex
 10
980.626677669227
 20
451.3814331882996
 30
0.0
  0
VERTEX
  5
630
330
62E
100
AcDbEntity
  8
0
 62
     2
100
AcDbVertex
100
AcDb2dVertex
 10
1339.62678579377
 20
451.3814331882996
 30
0.0
  0
SEQEND
  5
631
330
62E
100
AcDbEntity
  8
0
 62
     2
  0
POLYLINE
  5
632
330
1F
100
AcDbEntity
  8
0
 62
     2
100
AcDb2dPolyline
 66
     1
 10
0.0
 20
0.0
 30
0.0
  0
VERTEX
  5
633
330
632
100
AcDbEntity
  8
0
 62
     2
100
AcDbVertex
100
AcDb2dVertex
 10
983.126671103181
 20
448.8814397543454
 30
0.0
  0
VERTEX
  5
634
330
632
100
AcDbEntity
  8
0
 62
     2
100
AcDbVertex
100
AcDb2dVertex
 10
983.126671103181
 20
331.3812529049092
 30
0.0
  0
SEQEND
  5
635
330
632
100
AcDbEntity
  8
0
 62
     2
  0
POLYLINE
  5
636
330
1F
100
AcDbEntity
  8
0
 62
     1
100
AcDb2dPolyline
 66
     1
 10
0.0
 20
0.0
 30
0.0
  0
VERTEX
  5
637
330
636
100
AcDbEntity
  8
0
 62
     1
100
AcDbVertex
100
AcDb2dVertex
 10
980.626677669227
 20
451.3814331882996
 30
0.0
  0
VERTEX
  5
638
330
636
100
AcDbEntity
  8
0
 62
     1
100
AcDbVertex
100
AcDb2dVertex
 10
860.1266548646981
 20
451.3814331882996
 30
0.0
  0
SEQEND
  5
639
330
636
100
AcDbEntity
  8
0
 62
     1
  0
POLYLINE
  5
63A
330
1F
100
AcDbEntity
  8
0
 62
     1
100
AcDb2dPolyline
 66
     1
 10
0.0
 20
0.0
 30
0.0
  0
VERTEX
  5
63B
330
63A
100
AcDbEntity
  8
0
 62
     1
100
AcDbVertex
100
AcDb2dVertex
 10
983.126671103181
 20
331.3812529049092
 30
0.0
  0
VERTEX
  5
63C
330
63A
100
AcDbEntity
  8
0
 62
     1
100
AcDbVertex
100
AcDb2dVertex
 10
1337.126792321922
 20
331.3812529049092
 30
0.0
  0
SEQEND
  5
63D
330
63A
100
AcDbEntity
  8
0
 62
     1
  0
POLYLINE
  5
63E
330
1F
100
AcDbEntity
  8
0
 62
     1
100
AcDb2dPolyline
 66
     1
 10
0.0
 20
0.0
 30
0.0
  0
VERTEX
  5
63F
330
63E
100
AcDbEntity
  8
0
 62
     1
100
AcDbVertex
100
AcDb2dVertex
 10
860.1266548646981
 20
451.3814331882996
 30
0.0
  0
VERTEX
  5
640
330
63E
100
AcDbEntity
  8
0
 62
     1
100
AcDbVertex
100
AcDb2dVertex
 10
853.1266811288812
 20
454.3814200562081
 30
0.0
  0
SEQEND
  5
641
330
63E
100
AcDbEntity
  8
0
 62
     1
  0
POLYLINE
  5
642
330
1F
100
AcDbEntity
  8
0
 62
     1
100
AcDb2dPolyline
 66
     1
 10
0.0
 20
0.0
 30
0.0
  0
VERTEX
  5
643
330
642
100
AcDbEntity
  8
0
 62
     1
100
AcDbVertex
100
AcDb2dVertex
 10
1460.126775632006
 20
451.3814331882996
 30
0.0
  0
VERTEX
  5
644
330
642
100
AcDbEntity
  8
0
 62
     1
100
AcDbVertex
100
AcDb2dVertex
 10
1467.12682007495
 20
454.3814200562081
 30
0.0
  0
SEQEND
  5
645
330
642
100
AcDbEntity
  8
0
 62
     1
  0
POLYLINE
  5
646
102
{ACAD_REACTORS
330
776
102
}
330
1F
100
AcDbEntity
  8
0
 62
     1
100
AcDb2dPolyline
 66
     1
 10
0.0
 20
0.0
 30
0.0
  0
VERTEX
  5
726
102
{ACAD_REACTORS
330
776
102
}
330
646
100
AcDbEntity
  8
0
 62
     1
100
AcDbVertex
100
AcDb2dVertex
 10
853.1266811288812
 20
454.3814200562081
 30
0.0
  0
VERTEX
  5
727
330
646
100
AcDbEntity
  8
0
 62
     1
100
AcDbVertex
100
AcDb2dVertex
 10
733.1266629406724
 20
454.3814200562081
 30
0.0
  0
VERTEX
  5
728
330
646
100
AcDbEntity
  8
0
 62
     1
100
AcDbVertex
100
AcDb2dVertex
 10
733.1266629406724
 20
723.3814544237388
 30
0.0
  0
VERTEX
  5
729
330
646
100
AcDbEntity
  8
0
 62
     1
100
AcDbVertex
100
AcDb2dVertex
 10
853.1266811288812
 20
723.3814544237388
 30
0.0
  0
SEQEND
  5
72A
330
646
100
AcDbEntity
  8
0
 62
     1
  0
POLYLINE
  5
64A
102
{ACAD_REACTORS
330
776
102
}
330
1F
100
AcDbEntity
  8
0
 62
     1
100
AcDb2dPolyline
 66
     1
 10
0.0
 20
0.0
 30
0.0
  0
VERTEX
  5
749
102
{ACAD_REACTORS
330
776
102
}
330
64A
100
AcDbEntity
  8
0
 62
     1
100
AcDbVertex
100
AcDb2dVertex
 10
1467.12682007495
 20
454.3814200562081
 30
0.0
  0
VERTEX
  5
74A
330
64A
100
AcDbEntity
  8
0
 62
     1
100
AcDbVertex
100
AcDb2dVertex
 10
1587.126678385284
 20
454.3814200562081
 30
0.0
  0
VERTEX
  5
74B
330
64A
100
AcDbEntity
  8
0
 62
     1
100
AcDbVertex
100
AcDb2dVertex
 10
1587.126678385284
 20
723.3814544237388
 30
0.0
  0
VERTEX
  5
74C
330
64A
100
AcDbEntity
  8
0
 62
     1
100
AcDbVertex
100
AcDb2dVertex
 10
1467.12682007495
 20
723.3814544237388
 30
0.0
  0
SEQEND
  5
74D
330
64A
100
AcDbEntity
  8
0
 62
     1
  0
POLYLINE
  5
64E
330
1F
100
AcDbEntity
  8
0
 62
     1
100
AcDb2dPolyline
 66
     1
 10
0.0
 20
0.0
 30
0.0
  0
VERTEX
  5
64F
330
64E
100
AcDbEntity
  8
0
 62
     1
100
AcDbVertex
100
AcDb2dVertex
 10
980.626677669227
 20
446.3814463203913
 30
0.0
  0
VERTEX
  5
650
330
64E
100
AcDbEntity
  8
0
 62
     1
100
AcDbVertex
100
AcDb2dVertex
 10
853.1266670515075
 20
446.3814463203913
 30
0.0
  0
SEQEND
  5
651
330
64E
100
AcDbEntity
  8
0
 62
     1
  0
POLYLINE
  5
652
330
1F
100
AcDbEntity
  8
0
 62
     1
100
AcDb2dPolyline
 66
     1
 10
0.0
 20
0.0
 30
0.0
  0
VERTEX
  5
653
330
652
100
AcDbEntity
  8
0
 62
     1
100
AcDbVertex
100
AcDb2dVertex
 10
853.1266670515075
 20
446.3814463203913
 30
0.0
  0
VERTEX
  5
654
330
652
100
AcDbEntity
  8
0
 62
     1
100
AcDbVertex
100
AcDb2dVertex
 10
853.1266670515075
 20
332.881264015645
 30
0.0
  0
SEQEND
  5
655
330
652
100
AcDbEntity
  8
0
 62
     1
  0
POLYLINE
  5
656
330
1F
100
AcDbEntity
  8
0
 62
     1
100
AcDb2dPolyline
 66
     1
 10
0.0
 20
0.0
 30
0.0
  0
VERTEX
  5
657
330
656
100
AcDbEntity
  8
0
 62
     1
100
AcDbVertex
100
AcDb2dVertex
 10
853.1266670515075
 20
332.881264015645
 30
0.0
  0
VERTEX
  5
658
330
656
100
AcDbEntity
  8
0
 62
     1
100
AcDbVertex
100
AcDb2dVertex
 10
981.6266600303379
 20
332.881264015645
 30
0.0
  0
SEQEND
  5
659
330
656
100
AcDbEntity
  8
0
 62
     1
  0
POLYLINE
  5
65A
102
{ACAD_REACTORS
330
790
102
}
330
1F
100
AcDbEntity
  8
0
 62
     1
100
AcDb2dPolyline
 66
     1
 10
0.0
 20
0.0
 30
0.0
  0
VERTEX
  5
65B
102
{ACAD_REACTORS
330
790
102
}
330
65A
100
AcDbEntity
  8
0
 62
     1
100
AcDbVertex
100
AcDb2dVertex
 10
981.6266600303379
 20
332.881264015645
 30
0.0
  0
VERTEX
  5
65C
330
65A
100
AcDbEntity
  8
0
 62
     1
100
AcDbVertex
100
AcDb2dVertex
 10
983.126671103181
 20
331.3812529049092
 30
0.0
  0
SEQEND
  5
65D
330
65A
100
AcDbEntity
  8
0
 62
     1
  0
POLYLINE
  5
65E
330
1F
100
AcDbEntity
  8
0
 62
     1
100
AcDb2dPolyline
 66
     1
 10
0.0
 20
0.0
 30
0.0
  0
VERTEX
  5
65F
330
65E
100
AcDbEntity
  8
0
 62
     1
100
AcDbVertex
100
AcDb2dVertex
 10
1467.126728407409
 20
446.3814463203915
 30
0.0
  0
VERTEX
  5
660
330
65E
100
AcDbEntity
  8
0
 62
     1
100
AcDbVertex
100
AcDb2dVertex
 10
1467.126728407409
 20
332.881264015645
 30
0.0
  0
SEQEND
  5
661
330
65E
100
AcDbEntity
  8
0
 62
     1
  0
POLYLINE
  5
662
330
1F
100
AcDbEntity
  8
0
 62
     1
100
AcDb2dPolyline
 66
     1
 10
0.0
 20
0.0
 30
0.0
  0
VERTEX
  5
663
330
662
100
AcDbEntity
  8
0
 62
     1
100
AcDbVertex
100
AcDb2dVertex
 10
1467.126728407409
 20
332.881264015645
 30
0.0
  0
VERTEX
  5
664
330
662
100
AcDbEntity
  8
0
 62
     1
100
AcDbVertex
100
AcDb2dVertex
 10
1338.626803432659
 20
332.881264015645
 30
0.0
  0
SEQEND
  5
665
330
662
100
AcDbEntity
  8
0
 62
     1
  0
POLYLINE
  5
666
330
1F
100
AcDbEntity
  8
0
 62
     1
100
AcDb2dPolyline
 66
     1
 10
0.0
 20
0.0
 30
0.0
  0
VERTEX
  5
667
330
666
100
AcDbEntity
  8
0
 62
     1
100
AcDbVertex
100
AcDb2dVertex
 10
1338.626803432659
 20
332.881264015645
 30
0.0
  0
VERTEX
  5
668
330
666
100
AcDbEntity
  8
0
 62
     1
100
AcDbVertex
100
AcDb2dVertex
 10
1337.126792321922
 20
331.3812529049092
 30
0.0
  0
SEQEND
  5
669
330
666
100
AcDbEntity
  8
0
 62
     1
  0
CIRCLE
  5
66A
330
1F
100
AcDbEntity
  8
0
100
AcDbCircle
 10
983.126671103181
 20
446.3814463203911
 30
0.0
 40
0.0000000000001441
  0
ARC
  5
66B
330
1F
100
AcDbEntity
  8
0
 62
     1
100
AcDbCircle
 10
980.626677669227
 20
448.8814397543454
 30
0.0
 40
2.499993433954041
100
AcDbArc
 50
270.0
 51
90.00000000000005
  0
POLYLINE
  5
66C
330
1F
100
AcDbEntity
  8
0
 62
     2
100
AcDb2dPolyline
 66
     1
 10
0.0
 20
0.0
 30
0.0
  0
VERTEX
  5
66D
330
66C
100
AcDbEntity
  8
0
 62
     2
100
AcDbVertex
100
AcDb2dVertex
 10
1337.126792359816
 20
448.8814397543454
 30
0.0
  0
VERTEX
  5
66E
330
66C
100
AcDbEntity
  8
0
 62
     2
100
AcDbVertex
100
AcDb2dVertex
 10
1337.126792359816
 20
331.3812529049092
 30
0.0
  0
SEQEND
  5
66F
330
66C
100
AcDbEntity
  8
0
 62
     2
  0
POLYLINE
  5
670
330
1F
100
AcDbEntity
  8
0
 62
     1
100
AcDb2dPolyline
 66
     1
 10
0.0
 20
0.0
 30
0.0
  0
VERTEX
  5
671
330
670
100
AcDbEntity
  8
0
 62
     1
100
AcDbVertex
100
AcDb2dVertex
 10
1339.62678579377
 20
451.3814331882996
 30
0.0
  0
VERTEX
  5
672
330
670
100
AcDbEntity
  8
0
 62
     1
100
AcDbVertex
100
AcDb2dVertex
 10
1460.126808598299
 20
451.3814331882996
 30
0.0
  0
SEQEND
  5
673
330
670
100
AcDbEntity
  8
0
 62
     1
  0
POLYLINE
  5
674
330
1F
100
AcDbEntity
  8
0
 62
     1
100
AcDb2dPolyline
 66
     1
 10
0.0
 20
0.0
 30
0.0
  0
VERTEX
  5
675
330
674
100
AcDbEntity
  8
0
 62
     1
100
AcDbVertex
100
AcDb2dVertex
 10
1339.62678579377
 20
446.3814463203913
 30
0.0
  0
VERTEX
  5
676
330
674
100
AcDbEntity
  8
0
 62
     1
100
AcDbVertex
100
AcDb2dVertex
 10
1467.12679641149
 20
446.3814463203913
 30
0.0
  0
SEQEND
  5
677
330
674
100
AcDbEntity
  8
0
 62
     1
  0
CIRCLE
  5
678
330
1F
100
AcDbEntity
  8
0
100
AcDbCircle
 10
1337.126792359816
 20
446.3814463203911
 30
0.0
 40
0.0000000000001441
  0
ARC
  5
679
330
1F
100
AcDbEntity
  8
0
 62
     1
100
AcDbCircle
 10
1339.62678579377
 20
448.8814397543454
 30
0.0
 40
2.499993433954041
100
AcDbArc
 50
90.00000000000005
 51
270.0
  0
ARC
  5
67E
330
1F
100
AcDbEntity
  8
0
 62
     1
100
AcDbCircle
 10
2297.695528923201
 20
744.1897525302891
 30
0.0
 40
2.499993433954064
100
AcDbArc
 50
90.0
 51
270.0
  0
POLYLINE
  5
67F
330
1F
100
AcDbEntity
  8
0
 62
     1
100
AcDb2dPolyline
 66
     1
 10
0.0
 20
0.0
 30
0.0
  0
VERTEX
  5
680
330
67F
100
AcDbEntity
  8
0
 62
     1
100
AcDbVertex
100
AcDb2dVertex
 10
2297.695528923201
 20
746.6897459642433
 30
0.0
  0
VERTEX
  5
681
330
67F
100
AcDbEntity
  8
0
 62
     1
100
AcDbVertex
100
AcDb2dVertex
 10
2455.19553319449
 20
746.6897459642433
 30
0.0
  0
SEQEND
  5
682
330
67F
100
AcDbEntity
  8
0
 62
     1
  0
POLYLINE
  5
683
330
1F
100
AcDbEntity
  8
0
 62
     2
100
AcDb2dPolyline
 66
     1
 10
0.0
 20
0.0
 30
0.0
  0
VERTEX
  5
684
330
683
100
AcDbEntity
  8
0
 62
     2
100
AcDbVertex
100
AcDb2dVertex
 10
2295.195535489248
 20
744.1897525302895
 30
0.0
  0
VERTEX
  5
685
330
683
100
AcDbEntity
  8
0
 62
     2
100
AcDbVertex
100
AcDb2dVertex
 10
2295.195535489248
 20
855.6897440997532
 30
0.0
  0
SEQEND
  5
686
330
683
100
AcDbEntity
  8
0
 62
     2
  0
POLYLINE
  5
687
330
1F
100
AcDbEntity
  8
0
 62
     1
100
AcDb2dPolyline
 66
     1
 10
0.0
 20
0.0
 30
0.0
  0
VERTEX
  5
688
330
687
100
AcDbEntity
  8
0
 62
     1
100
AcDbVertex
100
AcDb2dVertex
 10
2455.19553319449
 20
746.6897459642432
 30
0.0
  0
VERTEX
  5
689
330
687
100
AcDbEntity
  8
0
 62
     1
100
AcDbVertex
100
AcDb2dVertex
 10
2455.19553319449
 20
854.1897435723498
 30
0.0
  0
SEQEND
  5
68A
330
687
100
AcDbEntity
  8
0
 62
     1
  0
POLYLINE
  5
68B
330
1F
100
AcDbEntity
  8
0
 62
     2
100
AcDb2dPolyline
 66
     1
 10
0.0
 20
0.0
 30
0.0
  0
VERTEX
  5
68C
330
68B
100
AcDbEntity
  8
0
 62
     2
100
AcDbVertex
100
AcDb2dVertex
 10
2295.195535489248
 20
402.1897349741191
 30
0.0
  0
VERTEX
  5
68D
330
68B
100
AcDbEntity
  8
0
 62
     2
100
AcDbVertex
100
AcDb2dVertex
 10
2295.195535489248
 20
290.6897434046553
 30
0.0
  0
SEQEND
  5
68E
330
68B
100
AcDbEntity
  8
0
 62
     2
  0
POLYLINE
  5
68F
330
1F
100
AcDbEntity
  8
0
 62
     1
100
AcDb2dPolyline
 66
     1
 10
0.0
 20
0.0
 30
0.0
  0
VERTEX
  5
690
330
68F
100
AcDbEntity
  8
0
 62
     1
100
AcDbVertex
100
AcDb2dVertex
 10
2297.695528923201
 20
404.689728408073
 30
0.0
  0
VERTEX
  5
691
330
68F
100
AcDbEntity
  8
0
 62
     1
100
AcDbVertex
100
AcDb2dVertex
 10
2412.19550743636
 20
404.6897284080733
 30
0.0
  0
SEQEND
  5
692
330
68F
100
AcDbEntity
  8
0
 62
     1
  0
POLYLINE
  5
693
330
1F
100
AcDbEntity
  8
0
 62
     1
100
AcDb2dPolyline
 66
     1
 10
0.0
 20
0.0
 30
0.0
  0
VERTEX
  5
694
330
693
100
AcDbEntity
  8
0
 62
     1
100
AcDbVertex
100
AcDb2dVertex
 10
2297.695528923201
 20
399.6897415401648
 30
0.0
  0
VERTEX
  5
695
330
693
100
AcDbEntity
  8
0
 62
     1
100
AcDbVertex
100
AcDb2dVertex
 10
2455.19553319449
 20
399.6897415401648
 30
0.0
  0
SEQEND
  5
696
330
693
100
AcDbEntity
  8
0
 62
     1
  0
ARC
  5
697
330
1F
100
AcDbEntity
  8
0
 62
     1
100
AcDbCircle
 10
2297.695528923201
 20
402.1897349741188
 30
0.0
 40
2.499993433954064
100
AcDbArc
 50
90.0
 51
270.0
  0
DIMENSION
  5
698
102
{ACAD_XDICTIONARY
360
6A6
102
}
102
{ACAD_REACTORS
330
6B1
102
}
330
1F
100
AcDbEntity
  8
0
100
AcDbDimension
  2
*D10
 10
2169.872053327598
 20
290.6896617085032
 30
0.0
 11
2169.872053327598
 21
347.6896200313368
 31
0.0
 70
    32
 71
     5
 42
113.9999166456664
 73
     0
 74
     0
 75
     0
  3
Standard
100
AcDbAlignedDimension
 13
2165.181797825311
 23
404.6895783541696
 33
0.0
 14
2164.69550196427
 24
290.6896617085032
 34
0.0
 50
270.0
100
AcDbRotatedDimension
  0
DIMENSION
  5
6B2
102
{ACAD_XDICTIONARY
360
6C0
102
}
102
{ACAD_REACTORS
330
6CB
102
}
330
1F
100
AcDbEntity
  8
0
100
AcDbDimension
  2
*D11
 10
983.126671103181
 20
772.4618113954055
 30
0.0
 11
918.1266690773442
 21
772.4618113954055
 31
0.0
 70
    32
 71
     5
 42
130.0000040516735
 73
     0
 74
     0
 75
     0
  3
Standard
100
AcDbAlignedDimension
 13
853.1266670515075
 23
770.9819506343956
 33
0.0
 14
983.126671103181
 24
770.9819506343956
 34
0.0
100
AcDbRotatedDimension
  0
DIMENSION
  5
6E0
102
{ACAD_XDICTIONARY
360
6EE
102
}
102
{ACAD_REACTORS
330
6F9
102
}
330
1F
100
AcDbEntity
  8
0
100
AcDbDimension
  2
*D12
 10
2034.195468439291
 20
802.8866112369064
 30
0.0
 11
1954.195503178201
 21
802.8866112369064
 31
0.0
 70
    32
 71
     5
 42
159.9999305221802
 73
     0
 74
     0
 75
     0
  3
Standard
100
AcDbAlignedDimension
 13
1874.195537917111
 23
799.4397447682968
 33
0.0
 14
2034.195468439291
 24
799.4397447682968
 34
0.0
100
AcDbRotatedDimension
  0
POLYLINE
  5
704
330
1F
100
AcDbEntity
  8
0
 62
     1
100
AcDb2dPolyline
 66
     1
 10
0.0
 20
0.0
 30
0.0
  0
VERTEX
  5
705
330
704
100
AcDbEntity
  8
0
 62
     1
100
AcDbVertex
100
AcDb2dVertex
 10
2455.19553319449
 20
399.6897415401648
 30
0.0
  0
VERTEX
  5
706
330
704
100
AcDbEntity
  8
0
 62
     1
100
AcDbVertex
100
AcDb2dVertex
 10
2455.19553319449
 20
292.1896728192394
 30
0.0
  0
SEQEND
  5
707
330
704
100
AcDbEntity
  8
0
 62
     1
  0
DIMENSION
  5
708
102
{ACAD_XDICTIONARY
360
716
102
}
102
{ACAD_REACTORS
330
721
102
}
330
1F
100
AcDbEntity
  8
0
100
AcDbDimension
  2
*D13
 10
980.1266842352729
 20
632.7816372439368
 30
0.0
 11
920.1266695499855
 21
632.7816372439368
 31
0.0
 70
    32
 71
     5
 42
120.0000293705749
 73
     0
 74
     0
 75
     0
  3
Standard
100
AcDbAlignedDimension
 13
860.1266548646981
 23
588.8814372399735
 33
0.0
 14
980.1266842352729
 24
630.5844824063731
 34
0.0
100
AcDbRotatedDimension
  0
POLYLINE
  5
757
102
{ACAD_REACTORS
330
7C4
102
}
330
1F
100
AcDbEntity
  8
0
 62
     1
100
AcDb2dPolyline
 66
     1
 10
0.0
 20
0.0
 30
0.0
  0
VERTEX
  5
758
330
757
100
AcDbEntity
  8
0
 62
     1
100
AcDbVertex
100
AcDb2dVertex
 10
1911.195469801803
 20
738.6897369506497
 30
0.0
  0
VERTEX
  5
759
102
{ACAD_REACTORS
330
7C4
102
}
330
757
100
AcDbEntity
  8
0
 62
     1
100
AcDbVertex
100
AcDb2dVertex
 10
1797.195460627187
 20
738.6897369506497
 30
0.0
  0
VERTEX
  5
75A
330
757
100
AcDbEntity
  8
0
 62
     1
100
AcDbVertex
100
AcDb2dVertex
 10
1797.195460627188
 20
407.6897505537588
 30
0.0
  0
VERTEX
  5
75B
330
757
100
AcDbEntity
  8
0
 62
     1
100
AcDbVertex
100
AcDb2dVertex
 10
1911.195469801803
 20
407.6897505537588
 30
0.0
  0
SEQEND
  5
75C
330
757
100
AcDbEntity
  8
0
 62
     1
  0
DIMENSION
  5
75D
102
{ACAD_XDICTIONARY
360
76B
102
}
102
{ACAD_REACTORS
330
776
102
}
330
1F
100
AcDbEntity
  8
0
100
AcDbDimension
  2
*D15
 10
1587.126678385284
 20
262.1538896587358
 30
0.0
 11
1160.126670662978
 21
262.1538896587358
 31
0.0
 70
    32
 71
     5
 42
854.0000154446117
 73
     0
 74
     0
 75
     0
  3
Standard
100
AcDbAlignedDimension
 13
733.1266629406724
 23
454.3814200562081
 33
0.0
 14
1587.126678385284
 24
454.3814200562081
 34
0.0
100
AcDbRotatedDimension
  0
DIMENSION
  5
777
102
{ACAD_XDICTIONARY
360
785
102
}
102
{ACAD_REACTORS
330
790
102
}
330
1F
100
AcDbEntity
  8
0
100
AcDbDimension
  2
*D16
 10
684.3859291501857
 20
846.381621575038
 30
0.0
 11
684.3859291501854
 21
588.8814372399738
 31
0.0
 70
    32
 71
     5
 42
515.0003686701288
 73
     0
 74
     0
 75
     0
  3
Standard
100
AcDbAlignedDimension
 13
983.126671103181
 23
331.3812529049092
 33
0.0
 14
983.126671103181
 24
846.381621575038
 34
0.0
 50
90.0
100
AcDbRotatedDimension
  0
DIMENSION
  5
791
102
{ACAD_XDICTIONARY
360
79F
102
}
102
{ACAD_REACTORS
330
7AA
102
}
330
1F
100
AcDbEntity
  8
0
100
AcDbDimension
  2
*D17
 10
1738.874100504919
 20
290.6896617085034
 30
0.0
 11
1738.874100504919
 21
573.1897029041286
 31
0.0
 70
    32
 71
     5
 42
565.0000823912498
 73
     0
 74
     0
 75
     0
  3
Standard
100
AcDbAlignedDimension
 13
2034.195468439291
 23
855.6897440997532
 33
0.0
 14
2034.195468439291
 24
290.6896617085034
 34
0.0
 50
270.0
100
AcDbRotatedDimension
  0
DIMENSION
  5
7AB
102
{ACAD_XDICTIONARY
360
7B9
102
}
102
{ACAD_REACTORS
330
7C4
102
}
330
1F
100
AcDbEntity
  8
0
100
AcDbDimension
  2
*D18
 10
2533.195525624568
 20
198.1784725368387
 30
0.0
 11
2165.195493125878
 21
198.1784725368387
 31
0.0
 70
    32
 71
     5
 42
736.0000649973796
 73
     0
 74
     0
 75
     0
  3
Standard
100
AcDbAlignedDimension
 13
1797.195460627188
 23
407.6897505537588
 33
0.0
 14
2533.195525624568
 24
407.6897505537586
 34
0.0
100
AcDbRotatedDimension
  0
LINE
  5
897
330
1F
100
AcDbEntity
  8
0
100
AcDbLine
 10
1093.290296771781
 20
45.96838250888544
 30
0.0
 11
2062.565925674346
 21
45.96838250888544
 31
0.0
  0
LINE
  5
898
330
1F
100
AcDbEntity
  8
0
100
AcDbLine
 10
2062.565925674346
 20
45.96838250888544
 30
0.0
 11
1837.060981970611
 21
-38.3756611272001
 31
0.0
  0
MTEXT
  5
8A2
330
1F
100
AcDbEntity
  8
0
100
AcDbMText
 10
963.3413668036618
 20
927.9342881537601
 30
0.0
 40
30.0
 41
216.0670125204456
 46
38.01403966920151
 71
     1
 72
     5
  1
{\fSimSun|b0|i0|c134|p2;天盒} B{\fSimSun|b0|i0|c134|p2;坑}
 73
     1
 44
1.0
  0
MTEXT
  5
8AA
330
1F
100
AcDbEntity
  8
0
100
AcDbMText
 10
1961.063744132941
 20
944.4894473874242
 30
0.0
 40
30.0
 41
286.0670125204456
 46
38.01403966920151
 71
     1
 72
     5
  1
{\fSimSun|b0|i0|c134|p2;地盒} B{\fSimSun|b0|i0|c134|p2;坑}
 73
     1
 44
1.0
  0
ENDSEC
  0
SECTION
  2
OBJECTS
  0
DICTIONARY
  5
C
330
0
100
AcDbDictionary
281
     1
  3
ACAD_COLOR
350
1E1
  3
ACAD_GROUP
350
D
  3
ACAD_LAYOUT
350
1A
  3
ACAD_MATERIAL
350
3B
  3
ACAD_MLEADERSTYLE
350
1DE
  3
ACAD_MLINESTYLE
350
17
  3
ACAD_PLOTSETTINGS
350
19
  3
ACAD_PLOTSTYLENAME
350
E
  3
ACAD_TABLESTYLE
350
1DD
  3
ACAD_VISUALSTYLE
350
2A
  3
AcDbVariableDictionary
350
1E5
  0
SUN
  5
3F
330
29
100
AcDbSun
 90
        1
290
     1
 63
     7
421
 16777215
 40
1.0
291
     1
 91
  2455826
 92
 54000000
292
     0
 70
     0
 71
   256
280
     1
  0
DICTIONARY
  5
60C
330
1F
100
AcDbDictionary
280
     1
281
     1
  3
ACAD_SORTENTS
360
60D
  0
DICTIONARY
  5
210
330
202
100
AcDbDictionary
280
     1
281
     1
  3
ACAD_DIMASSOC
360
21B
  0
DICTIONARY
  5
51E
330
51D
100
AcDbDictionary
280
     1
281
     1
  3
ACAD_DIMASSOC
360
51F
  0
DICTIONARY
  5
6A6
330
698
100
AcDbDictionary
280
     1
281
     1
  3
ACAD_DIMASSOC
360
6B1
  0
DICTIONARY
  5
6C0
330
6B2
100
AcDbDictionary
280
     1
281
     1
  3
ACAD_DIMASSOC
360
6CB
  0
DICTIONARY
  5
6EE
330
6E0
100
AcDbDictionary
280
     1
281
     1
  3
ACAD_DIMASSOC
360
6F9
  0
DICTIONARY
  5
716
330
708
100
AcDbDictionary
280
     1
281
     1
  3
ACAD_DIMASSOC
360
721
  0
DICTIONARY
  5
76B
330
75D
100
AcDbDictionary
280
     1
281
     1
  3
ACAD_DIMASSOC
360
776
  0
DICTIONARY
  5
785
330
777
100
AcDbDictionary
280
     1
281
     1
  3
ACAD_DIMASSOC
360
790
  0
DICTIONARY
  5
79F
330
791
100
AcDbDictionary
280
     1
281
     1
  3
ACAD_DIMASSOC
360
7AA
  0
DICTIONARY
  5
7B9
330
7AB
100
AcDbDictionary
280
     1
281
     1
  3
ACAD_DIMASSOC
360
7C4
  0
DICTIONARY
  5
1E1
102
{ACAD_REACTORS
330
C
102
}
330
C
100
AcDbDictionary
281
     1
  0
DICTIONARY
  5
D
102
{ACAD_REACTORS
330
C
102
}
330
C
100
AcDbDictionary
281
     1
  0
DICTIONARY
  5
1A
102
{ACAD_REACTORS
330
C
102
}
330
C
100
AcDbDictionary
281
     1
  3
Layout1
350
1E
  3
Layout2
350
26
  3
Model
350
22
  0
DICTIONARY
  5
3B
102
{ACAD_REACTORS
330
C
102
}
330
C
100
AcDbDictionary
281
     1
  3
ByBlock
350
3D
  3
ByLayer
350
3C
  3
Global
350
3E
  0
DICTIONARY
  5
1DE
102
{ACAD_REACTORS
330
C
102
}
330
C
100
AcDbDictionary
281
     1
  0
DICTIONARY
  5
17
102
{ACAD_REACTORS
330
C
102
}
330
C
100
AcDbDictionary
281
     1
  3
Standard
350
18
  0
DICTIONARY
  5
19
102
{ACAD_REACTORS
330
C
102
}
330
C
100
AcDbDictionary
281
     1
  0
ACDBDICTIONARYWDFLT
  5
E
102
{ACAD_REACTORS
330
C
102
}
330
C
100
AcDbDictionary
281
     1
  3
Normal
350
F
100
AcDbDictionaryWithDefault
340
F
  0
DICTIONARY
  5
1DD
102
{ACAD_REACTORS
330
C
102
}
330
C
100
AcDbDictionary
281
     1
  3
Standard
350
1E2
  0
DICTIONARY
  5
2A
102
{ACAD_REACTORS
330
C
102
}
330
C
100
AcDbDictionary
281
     1
  3
2dWireframe
350
2F
  3
3D Hidden
350
31
  3
3dWireframe
350
30
  3
Basic
350
32
  3
Brighten
350
36
  3
ColorChange
350
3A
  3
Conceptual
350
34
  3
Dim
350
35
  3
Facepattern
350
39
  3
Flat
350
2B
  3
FlatWithEdges
350
2C
  3
Gouraud
350
2D
  3
GouraudWithEdges
350
2E
  3
Linepattern
350
38
  3
Realistic
350
33
  3
Thicken
350
37
  0
DICTIONARY
  5
1E5
102
{ACAD_REACTORS
330
C
102
}
330
C
100
AcDbDictionary
281
     1
  3
CTABLESTYLE
350
1E6
  0
SORTENTSTABLE
  5
60D
102
{ACAD_REACTORS
330
60C
102
}
330
60C
100
AcDbSortentsTable
330
1F
331
674
  5
67F
331
614
  5
6A
331
47A
  5
492
331
693
  5
697
331
670
  5
67E
331
610
  5
164
331
476
  5
48E
331
CB
  5
CF
331
68F
  5
693
331
687
  5
520
331
472
  5
48A
331
68B
  5
68F
331
D3
  5
D8
331
683
  5
40A
331
46E
  5
486
331
1E7
  5
3CA
331
60E
  5
629
331
67F
  5
51D
331
6B2
  5
6E0
331
629
  5
63E
331
4F4
  5
516
331
4F0
  5
512
331
66B
  5
679
331
4EC
  5
505
331
452
  5
464
331
4E8
  5
501
331
175
  5
186
331
51A
  5
620
331
44E
  5
460
331
171
  5
182
331
40E
  5
426
331
7E
  5
87
331
46D
  5
482
331
7A
  5
7E
331
67E
  5
68B
331
406
  5
422
331
628
  5
63A
331
202
  5
3CE
331
6E
  5
72
331
62
  5
62
331
3FE
  5
416
331
624
  5
636
331
66A
  5
678
331
3FA
  5
412
331
620
  5
632
331
5E
  5
5E
331
666
  5
674
331
51D
  5
624
331
4DF
  5
4F8
331
3F6
  5
40E
331
61C
  5
62E
331
516
  5
61C
331
4E7
  5
4FD
331
662
  5
670
331
618
  5
169
331
512
  5
618
331
4E3
  5
4F9
331
65E
  5
66C
331
3EE
  5
402
331
56
  5
56
331
704
  5
4F4
331
164
  5
171
331
6E0
  5
704
331
65A
  5
66B
331
3EA
  5
3FE
331
52
  5
52
331
50E
  5
614
331
160
  5
16D
331
468
  5
47E
331
656
  5
66A
331
42
  5
42
331
50A
  5
610
331
464
  5
476
331
652
  5
666
331
4A
  5
4A
331
3E2
  5
3F6
331
3D6
  5
3EA
331
64E
  5
662
331
679
  5
687
331
3DE
  5
3F2
331
520
  5
628
331
64A
  5
65E
331
3D2
  5
3E6
331
460
  5
472
331
646
  5
65A
331
698
  5
6B2
331
642
  5
656
331
636
  5
64A
331
3CA
  5
3DE
331
21C
  5
3D2
331
63E
  5
652
331
632
  5
646
331
505
  5
60E
331
60F
  5
62A
331
3C6
  5
3DA
331
63A
  5
64E
331
3C2
  5
3D6
331
501
  5
608
331
F7
  5
FB
331
62E
  5
642
331
509
  5
60F
331
62A
  5
17E
331
482
  5
49A
331
697
  5
698
331
66C
  5
67A
331
457
  5
46C
331
EF
  5
F3
331
678
  5
683
  0
DIMASSOC
  5
21B
102
{ACAD_REACTORS
330
210
102
}
330
210
100
AcDbDimAssoc
330
202
 90
        1
 70
     0
 71
     0
  1
AcDbOsnapPointRef
 72
     8
331
42
331
43
 73
     2
 91
        0
 40
0.7731082342240199
 10
0.0
 20
0.0
 30
0.0
 75
     1
  1
AcDbOsnapPointRef
 72
     0
 40
0.0
 10
1273.508834118147
 20
550.1030505432111
 30
0.0
 75
     0
  0
DIMASSOC
  5
51F
102
{ACAD_REACTORS
330
51E
102
}
330
51E
100
AcDbDimAssoc
330
51D
 90
        3
 70
     0
 71
     0
  1
AcDbOsnapPointRef
 72
    10
331
3C2
331
3C3
 73
     2
 91
        0
 40
0.7345678032605169
 10
0.0
 20
0.0
 30
0.0
 75
     0
  1
AcDbOsnapPointRef
 72
     8
331
3C6
331
3C7
 73
     2
 91
        0
 40
0.7345678032605169
 10
0.0
 20
0.0
 30
0.0
 75
     1
  1
AcDbOsnapPointRef
 72
    10
331
3C2
331
3C3
 73
     2
 91
        0
 40
0.7345678032605169
 10
0.0
 20
0.0
 30
0.0
 75
     0
  0
DIMASSOC
  5
6B1
102
{ACAD_REACTORS
330
6A6
102
}
330
6A6
100
AcDbDimAssoc
330
698
 90
        3
 70
     0
 71
     0
  1
AcDbOsnapPointRef
 72
     2
331
3C2
331
3C3
 73
     2
 91
        0
 40
0.5
 10
0.0
 20
0.0
 30
0.0
 75
     0
  1
AcDbOsnapPointRef
 72
     2
331
452
331
453
 73
     2
 91
        0
 40
0.5
 10
0.0
 20
0.0
 30
0.0
 75
     0
  0
DIMASSOC
  5
6CB
102
{ACAD_REACTORS
330
6C0
102
}
330
6C0
100
AcDbDimAssoc
330
6B2
 90
        3
 70
     0
 71
     0
  1
AcDbOsnapPointRef
 72
    10
331
618
331
619
 73
     2
 91
        0
 40
0.3489027213058828
 10
0.0
 20
0.0
 30
0.0
 75
     0
  1
AcDbOsnapPointRef
 72
     8
331
614
331
615
 73
     2
 91
        0
 40
0.3615241910745837
 10
0.0
 20
0.0
 30
0.0
 75
     1
  1
AcDbOsnapPointRef
 72
    10
331
618
331
619
 73
     2
 91
        0
 40
0.3489027213058828
 10
0.0
 20
0.0
 30
0.0
 75
     0
  0
DIMASSOC
  5
6F9
102
{ACAD_REACTORS
330
6EE
102
}
330
6EE
100
AcDbDimAssoc
330
6E0
 90
        3
 70
     0
 71
     0
  1
AcDbOsnapPointRef
 72
     2
331
50E
331
50F
 73
     2
 91
        0
 40
0.5000000000000016
 10
0.0
 20
0.0
 30
0.0
 75
     0
  1
AcDbOsnapPointRef
 72
     8
331
3F6
331
3F7
 73
     2
 91
        0
 40
0.5000000639117484
 10
0.0
 20
0.0
 30
0.0
 75
     1
  1
AcDbOsnapPointRef
 72
     2
331
50E
331
50F
 73
     2
 91
        0
 40
0.5000000000000016
 10
0.0
 20
0.0
 30
0.0
 75
     0
  0
DIMASSOC
  5
721
102
{ACAD_REACTORS
330
716
102
}
330
716
100
AcDbDimAssoc
330
708
 90
        1
 70
     0
 71
     0
  1
AcDbOsnapPointRef
 72
     2
331
62
331
63
 73
     2
 91
        0
 40
0.5000000000000002
 10
0.0
 20
0.0
 30
0.0
 75
     0
  0
DIMASSOC
  5
776
102
{ACAD_REACTORS
330
76B
102
}
330
76B
100
AcDbDimAssoc
330
75D
 90
        3
 70
     0
 71
     0
  1
AcDbOsnapPointRef
 72
     1
331
646
331
726
 73
     2
 91
        0
 40
1.0
 10
0.0
 20
0.0
 30
2.000000000000000E+50
 75
     0
  1
AcDbOsnapPointRef
 72
     1
331
64A
331
749
 73
     2
 91
        0
 40
1.0
 10
0.0
 20
0.0
 30
2.000000000000000E+50
 75
     0
  0
DIMASSOC
  5
790
102
{ACAD_REACTORS
330
785
102
}
330
785
100
AcDbDimAssoc
330
777
 90
        3
 70
     0
 71
     0
  1
AcDbOsnapPointRef
 72
     1
331
65A
331
65B
 73
     2
 91
        0
 40
1.0
 10
0.0
 20
0.0
 30
2.000000000000000E+50
 75
     0
  1
AcDbOsnapPointRef
 72
     1
331
164
331
165
 73
     2
 91
        0
 40
1.0
 10
0.0
 20
0.0
 30
2.000000000000000E+50
 75
     0
  0
DIMASSOC
  5
7AA
102
{ACAD_REACTORS
330
79F
102
}
330
79F
100
AcDbDimAssoc
330
791
 90
        3
 70
     0
 71
     0
  1
AcDbOsnapPointRef
 72
     1
331
516
331
517
 73
     2
 91
        0
 40
1.0
 10
0.0
 20
0.0
 30
2.000000000000000E+50
 75
     0
  1
AcDbOsnapPointRef
 72
     1
331
4F4
331
4F5
 73
     2
 91
        0
 40
1.0
 10
0.0
 20
0.0
 30
2.000000000000000E+50
 75
     0
  0
DIMASSOC
  5
7C4
102
{ACAD_REACTORS
330
7B9
102
}
330
7B9
100
AcDbDimAssoc
330
7AB
 90
        3
 70
     0
 71
     0
  1
AcDbOsnapPointRef
 72
     1
331
757
331
759
 73
     2
 91
        0
 40
1.0
 10
0.0
 20
0.0
 30
2.000000000000000E+50
 75
     0
  1
AcDbOsnapPointRef
 72
     1
331
482
331
753
 73
     2
 91
        0
 40
1.0
 10
0.0
 20
0.0
 30
2.000000000000000E+50
 75
     0
  0
LAYOUT
  5
1E
102
{ACAD_REACTORS
330
1A
102
}
330
1A
100
AcDbPlotSettings
  1

  2
none_device
  4

  6

 40
0.0
 41
0.0
 42
0.0
 43
0.0
 44
0.0
 45
0.0
 46
0.0
 47
0.0
 48
0.0
 49
0.0
140
0.0
141
0.0
142
1.0
143
1.0
 70
   688
 72
     0
 73
     0
 74
     5
  7

 75
    16
147
1.0
 76
     0
 77
     2
 78
   300
148
0.0
149
0.0
100
AcDbLayout
  1
Layout1
 70
     1
 71
     1
 10
0.0
 20
0.0
 11
12.0
 21
9.0
 12
0.0
 22
0.0
 32
0.0
 14
1.000000000000000E+20
 24
1.000000000000000E+20
 34
1.000000000000000E+20
 15
-1.000000000000000E+20
 25
-1.000000000000000E+20
 35
-1.000000000000000E+20
146
0.0
 13
0.0
 23
0.0
 33
0.0
 16
1.0
 26
0.0
 36
0.0
 17
0.0
 27
1.0
 37
0.0
 76
     0
330
1B
  0
LAYOUT
  5
26
102
{ACAD_REACTORS
330
1A
102
}
330
1A
100
AcDbPlotSettings
  1

  2
none_device
  4

  6

 40
0.0
 41
0.0
 42
0.0
 43
0.0
 44
0.0
 45
0.0
 46
0.0
 47
0.0
 48
0.0
 49
0.0
140
0.0
141
0.0
142
1.0
143
1.0
 70
   688
 72
     0
 73
     0
 74
     5
  7

 75
    16
147
1.0
 76
     0
 77
     2
 78
   300
148
0.0
149
0.0
100
AcDbLayout
  1
Layout2
 70
     1
 71
     2
 10
0.0
 20
0.0
 11
0.0
 21
0.0
 12
0.0
 22
0.0
 32
0.0
 14
0.0
 24
0.0
 34
0.0
 15
0.0
 25
0.0
 35
0.0
146
0.0
 13
0.0
 23
0.0
 33
0.0
 16
1.0
 26
0.0
 36
0.0
 17
0.0
 27
1.0
 37
0.0
 76
     0
330
23
  0
LAYOUT
  5
22
102
{ACAD_REACTORS
330
1A
102
}
330
1A
100
AcDbPlotSettings
  1

  2
none_device
  4

  6

 40
0.0
 41
0.0
 42
0.0
 43
0.0
 44
0.0
 45
0.0
 46
0.0
 47
0.0
 48
0.0
 49
0.0
140
0.0
141
0.0
142
1.0
143
1.0
 70
  1712
 72
     0
 73
     0
 74
     0
  7

 75
     0
147
1.0
 76
     0
 77
     2
 78
   300
148
0.0
149
0.0
100
AcDbLayout
  1
Model
 70
     1
 71
     0
 10
0.0
 20
0.0
 11
12.0
 21
9.0
 12
0.0
 22
0.0
 32
0.0
 14
1.000000000000000E+20
 24
1.000000000000000E+20
 34
1.000000000000000E+20
 15
-1.000000000000000E+20
 25
-1.000000000000000E+20
 35
-1.000000000000000E+20
146
0.0
 13
0.0
 23
0.0
 33
0.0
 16
1.0
 26
0.0
 36
0.0
 17
0.0
 27
1.0
 37
0.0
 76
     0
330
1F
331
29
  0
MATERIAL
  5
3D
102
{ACAD_REACTORS
330
3B
102
}
330
3B
100
AcDbMaterial
  1
ByBlock
 94
      127
  0
MATERIAL
  5
3C
102
{ACAD_REACTORS
330
3B
102
}
330
3B
100
AcDbMaterial
  1
ByLayer
 94
      127
  0
MATERIAL
  5
3E
102
{ACAD_REACTORS
330
3B
102
}
330
3B
100
AcDbMaterial
  1
Global
 94
      127
  0
MLINESTYLE
  5
18
102
{ACAD_REACTORS
330
17
102
}
330
17
100
AcDbMlineStyle
  2
STANDARD
 70
     0
  3

 62
   256
 51
90.0
 52
90.0
 71
     2
 49
0.5
 62
   256
  6
BYLAYER
 49
-0.5
 62
   256
  6
BYLAYER
  0
ACDBPLACEHOLDER
  5
F
102
{ACAD_REACTORS
330
E
102
}
330
E
  0
TABLESTYLE
  5
1E2
102
{ACAD_REACTORS
330
1DD
102
}
330
1DD
100
AcDbTableStyle
  3
Standard
 70
     0
 71
     0
 40
0.06
 41
0.06
280
     0
281
     0
  7
Standard
140
0.18
170
     2
 62
     0
 63
     7
283
     0
 90
      512
 91
        0
  1

274
    -2
284
     1
 64
     0
275
    -2
285
     1
 65
     0
276
    -2
286
     1
 66
     0
277
    -2
287
     1
 67
     0
278
    -2
288
     1
 68
     0
279
    -2
289
     1
 69
     0
  7
Standard
140
0.25
170
     5
 62
     0
 63
     7
283
     0
 90
      512
 91
        0
  1

274
    -2
284
     1
 64
     0
275
    -2
285
     1
 65
     0
276
    -2
286
     1
 66
     0
277
    -2
287
     1
 67
     0
278
    -2
288
     1
 68
     0
279
    -2
289
     1
 69
     0
  7
Standard
140
0.18
170
     5
 62
     0
 63
     7
283
     0
 90
      512
 91
        0
  1

274
    -2
284
     1
 64
     0
275
    -2
285
     1
 65
     0
276
    -2
286
     1
 66
     0
277
    -2
287
     1
 67
     0
278
    -2
288
     1
 68
     0
279
    -2
289
     1
 69
     0
  0
VISUALSTYLE
  5
2F
102
{ACAD_XDICTIONARY
360
1C5
102
}
102
{ACAD_REACTORS
330
2A
102
}
330
2A
100
AcDbVisualStyle
  2
2dWireframe
 70
     4
 71
     0
 72
     2
 73
     0
 90
        0
 40
-0.6
 41
-30.0
 62
     5
 63
     7
421
 16777215
 74
     1
 91
        4
 64
     7
 65
   257
 75
     1
175
     1
 42
1.0
 92
        0
 66
   257
 43
1.0
 76
     1
 77
     6
 78
     2
 67
     7
 79
     5
170
     0
171
     0
290
     0
174
     0
 93
        1
 44
0.0
173
     0
291
     0
 45
0.0
  0
VISUALSTYLE
  5
31
102
{ACAD_XDICTIONARY
360
1C9
102
}
102
{ACAD_REACTORS
330
2A
102
}
330
2A
100
AcDbVisualStyle
  2
3D Hidden
 70
     6
 71
     1
 72
     2
 73
     2
 90
        0
 40
-0.6
 41
-30.0
 62
     5
 63
     7
421
 16777215
 74
     2
 91
        2
 64
     7
 65
   257
 75
     2
175
     1
 42
40.0
 92
        0
 66
   257
 43
1.0
 76
     1
 77
     6
 78
     2
 67
     7
 79
     3
170
     0
171
     0
290
     0
174
     0
 93
        1
 44
0.0
173
     0
291
     0
 45
0.0
  0
VISUALSTYLE
  5
30
102
{ACAD_XDICTIONARY
360
1C7
102
}
102
{ACAD_REACTORS
330
2A
102
}
330
2A
100
AcDbVisualStyle
  2
3dWireframe
 70
     5
 71
     0
 72
     2
 73
     0
 90
        0
 40
-0.6
 41
-30.0
 62
     5
 63
     7
421
 16777215
 74
     1
 91
        4
 64
     7
 65
   257
 75
     1
175
     1
 42
1.0
 92
        0
 66
   257
 43
1.0
 76
     1
 77
     6
 78
     2
 67
     7
 79
     5
170
     0
171
     0
290
     0
174
     0
 93
        1
 44
0.0
173
     0
291
     0
 45
0.0
  0
VISUALSTYLE
  5
32
102
{ACAD_XDICTIONARY
360
1CB
102
}
102
{ACAD_REACTORS
330
2A
102
}
330
2A
100
AcDbVisualStyle
  2
Basic
 70
     7
 71
     1
 72
     0
 73
     1
 90
        0
 40
-0.6
 41
-30.0
 62
     5
 63
     7
421
 16777215
 74
     0
 91
        4
 64
     7
 65
   257
 75
     1
175
     1
 42
1.0
 92
        8
 66
     7
 43
1.0
 76
     1
 77
     6
 78
     2
 67
     7
 79
     5
170
     0
171
     0
290
     0
174
     0
 93
        1
 44
0.0
173
     0
291
     1
 45
0.0
  0
VISUALSTYLE
  5
36
102
{ACAD_XDICTIONARY
360
1D3
102
}
102
{ACAD_REACTORS
330
2A
102
}
330
2A
100
AcDbVisualStyle
  2
Brighten
 70
    12
 71
     2
 72
     2
 73
     0
 90
        0
 40
-0.6
 41
-30.0
 62
     5
 63
     7
421
 16777215
 74
     1
 91
        4
 64
     7
 65
   257
 75
     1
175
     1
 42
1.0
 92
        8
 66
     7
 43
1.0
 76
     1
 77
     6
 78
     2
 67
     7
 79
     5
170
     0
171
     0
290
     0
174
     0
 93
        1
 44
50.0
173
     0
291
     1
 45
0.0
  0
VISUALSTYLE
  5
3A
102
{ACAD_XDICTIONARY
360
1DB
102
}
102
{ACAD_REACTORS
330
2A
102
}
330
2A
100
AcDbVisualStyle
  2
ColorChange
 70
    16
 71
     2
 72
     2
 73
     3
 90
        0
 40
-0.6
 41
-30.0
 62
     5
 63
     8
421
  8421504
 74
     1
 91
        4
 64
     7
 65
   257
 75
     1
175
     1
 42
1.0
 92
        8
 66
     8
424
  8421504
 43
1.0
 76
     1
 77
     6
 78
     2
 67
     7
 79
     5
170
     0
171
     0
290
     0
174
     0
 93
        1
 44
0.0
173
     0
291
     1
 45
0.0
  0
VISUALSTYLE
  5
34
102
{ACAD_XDICTIONARY
360
1CF
102
}
102
{ACAD_REACTORS
330
2A
102
}
330
2A
100
AcDbVisualStyle
  2
Conceptual
 70
     9
 71
     3
 72
     2
 73
     0
 90
        0
 40
-0.6
 41
-30.0
 62
     5
 63
     7
421
 16777215
 74
     2
 91
        2
 64
     7
 65
   257
 75
     1
175
     1
 42
40.0
 92
        8
 66
     7
 43
1.0
 76
     1
 77
     6
 78
     2
 67
     7
 79
     3
170
     0
171
     0
290
     0
174
     0
 93
        1
 44
0.0
173
     0
291
     0
 45
0.0
  0
VISUALSTYLE
  5
35
102
{ACAD_XDICTIONARY
360
1D1
102
}
102
{ACAD_REACTORS
330
2A
102
}
330
2A
100
AcDbVisualStyle
  2
Dim
 70
    11
 71
     2
 72
     2
 73
     0
 90
        0
 40
-0.6
 41
-30.0
 62
     5
 63
     7
421
 16777215
 74
     1
 91
        4
 64
     7
 65
   257
 75
     1
175
     1
 42
1.0
 92
        8
 66
     7
 43
1.0
 76
     1
 77
     6
 78
     2
 67
     7
 79
     5
170
     0
171
     0
290
     0
174
     0
 93
        1
 44
-50.0
173
     0
291
     1
 45
0.0
  0
VISUALSTYLE
  5
39
102
{ACAD_XDICTIONARY
360
1D9
102
}
102
{ACAD_REACTORS
330
2A
102
}
330
2A
100
AcDbVisualStyle
  2
Facepattern
 70
    15
 71
     2
 72
     2
 73
     0
 90
        0
 40
-0.6
 41
-30.0
 62
     5
 63
     7
421
 16777215
 74
     1
 91
        4
 64
     7
 65
   257
 75
     1
175
     1
 42
1.0
 92
        8
 66
     7
 43
1.0
 76
     1
 77
     6
 78
     2
 67
     7
 79
     5
170
     0
171
     0
290
     0
174
     0
 93
        1
 44
0.0
173
     0
291
     1
 45
0.0
  0
VISUALSTYLE
  5
2B
102
{ACAD_XDICTIONARY
360
1BD
102
}
102
{ACAD_REACTORS
330
2A
102
}
330
2A
100
AcDbVisualStyle
  2
Flat
 70
     0
 71
     2
 72
     1
 73
     1
 90
        2
 40
-0.6
 41
30.0
 62
     5
 63
     7
421
 16777215
 74
     0
 91
        4
 64
     7
 65
   257
 75
     1
175
     1
 42
1.0
 92
        8
 66
     7
 43
1.0
 76
     1
 77
     6
 78
     2
 67
     7
 79
     5
170
     0
171
     0
290
     0
174
     0
 93
       13
 44
0.0
173
     0
291
     1
 45
0.0
  0
VISUALSTYLE
  5
2C
102
{ACAD_XDICTIONARY
360
1BF
102
}
102
{ACAD_REACTORS
330
2A
102
}
330
2A
100
AcDbVisualStyle
  2
FlatWithEdges
 70
     1
 71
     2
 72
     1
 73
     1
 90
        2
 40
-0.6
 41
30.0
 62
     5
 63
     7
421
 16777215
 74
     1
 91
        4
 64
     7
 65
   257
 75
     1
175
     1
 42
1.0
 92
        0
 66
   257
 43
1.0
 76
     1
 77
     6
 78
     2
 67
     7
 79
     5
170
     0
171
     0
290
     0
174
     0
 93
       13
 44
0.0
173
     0
291
     1
 45
0.0
  0
VISUALSTYLE
  5
2D
102
{ACAD_XDICTIONARY
360
1C1
102
}
102
{ACAD_REACTORS
330
2A
102
}
330
2A
100
AcDbVisualStyle
  2
Gouraud
 70
     2
 71
     2
 72
     2
 73
     1
 90
        2
 40
-0.6
 41
30.0
 62
     5
 63
     7
421
 16777215
 74
     0
 91
        4
 64
     7
 65
   257
 75
     1
175
     1
 42
1.0
 92
        0
 66
     7
 43
1.0
 76
     1
 77
     6
 78
     2
 67
     7
 79
     5
170
     0
171
     0
290
     0
174
     0
 93
       13
 44
0.0
173
     0
291
     1
 45
0.0
  0
VISUALSTYLE
  5
2E
102
{ACAD_XDICTIONARY
360
1C3
102
}
102
{ACAD_REACTORS
330
2A
102
}
330
2A
100
AcDbVisualStyle
  2
GouraudWithEdges
 70
     3
 71
     2
 72
     2
 73
     1
 90
        2
 40
-0.6
 41
30.0
 62
     5
 63
     7
421
 16777215
 74
     1
 91
        4
 64
     7
 65
   257
 75
     1
175
     1
 42
1.0
 92
        0
 66
   257
 43
1.0
 76
     1
 77
     6
 78
     2
 67
     7
 79
     5
170
     0
171
     0
290
     0
174
     0
 93
       13
 44
0.0
173
     0
291
     1
 45
0.0
  0
VISUALSTYLE
  5
38
102
{ACAD_XDICTIONARY
360
1D7
102
}
102
{ACAD_REACTORS
330
2A
102
}
330
2A
100
AcDbVisualStyle
  2
Linepattern
 70
    14
 71
     2
 72
     2
 73
     0
 90
        0
 40
-0.6
 41
-30.0
 62
     5
 63
     7
421
 16777215
 74
     1
 91
        4
 64
     7
 65
   257
 75
     7
175
     7
 42
1.0
 92
        8
 66
     7
 43
1.0
 76
     1
 77
     6
 78
     2
 67
     7
 79
     5
170
     0
171
     0
290
     0
174
     0
 93
        1
 44
0.0
173
     0
291
     1
 45
0.0
  0
VISUALSTYLE
  5
33
102
{ACAD_XDICTIONARY
360
1CD
102
}
102
{ACAD_REACTORS
330
2A
102
}
330
2A
100
AcDbVisualStyle
  2
Realistic
 70
     8
 71
     2
 72
     2
 73
     0
 90
        0
 40
-0.6
 41
-30.0
 62
     5
 63
     7
421
 16777215
 74
     1
 91
        0
 64
     7
 65
   257
 75
     1
175
     1
 42
1.0
 92
        8
 66
     8
424
  7895160
 43
1.0
 76
     1
 77
     6
 78
     2
 67
     7
 79
     5
170
     0
171
     0
290
     0
174
     0
 93
       13
 44
0.0
173
     0
291
     0
 45
0.0
  0
VISUALSTYLE
  5
37
102
{ACAD_XDICTIONARY
360
1D5
102
}
102
{ACAD_REACTORS
330
2A
102
}
330
2A
100
AcDbVisualStyle
  2
Thicken
 70
    13
 71
     2
 72
     2
 73
     0
 90
        0
 40
-0.6
 41
-30.0
 62
     5
 63
     7
421
 16777215
 74
     1
 91
        4
 64
     7
 65
   257
 75
     1
175
     1
 42
1.0
 92
       12
 66
     7
 43
1.0
 76
     1
 77
     6
 78
     2
 67
     7
 79
     5
170
     0
171
     0
290
     0
174
     0
 93
        1
 44
0.0
173
     0
291
     1
 45
0.0
  0
DICTIONARYVAR
  5
1E6
102
{ACAD_REACTORS
330
1E5
102
}
330
1E5
100
DictionaryVariables
280
     0
  1
STANDARD
  0
DICTIONARY
  5
1C5
330
2F
100
AcDbDictionary
280
     1
281
     1
  3
ACAD_XREC_ROUNDTRIP
360
1C6
  0
DICTIONARY
  5
1C9
330
31
100
AcDbDictionary
280
     1
281
     1
  3
ACAD_XREC_ROUNDTRIP
360
1CA
  0
DICTIONARY
  5
1C7
330
30
100
AcDbDictionary
280
     1
281
     1
  3
ACAD_XREC_ROUNDTRIP
360
1C8
  0
DICTIONARY
  5
1CB
330
32
100
AcDbDictionary
280
     1
281
     1
  3
ACAD_XREC_ROUNDTRIP
360
1CC
  0
DICTIONARY
  5
1D3
330
36
100
AcDbDictionary
280
     1
281
     1
  3
ACAD_XREC_ROUNDTRIP
360
1D4
  0
DICTIONARY
  5
1DB
330
3A
100
AcDbDictionary
280
     1
281
     1
  3
ACAD_XREC_ROUNDTRIP
360
1DC
  0
DICTIONARY
  5
1CF
330
34
100
AcDbDictionary
280
     1
281
     1
  3
ACAD_XREC_ROUNDTRIP
360
1D0
  0
DICTIONARY
  5
1D1
330
35
100
AcDbDictionary
280
     1
281
     1
  3
ACAD_XREC_ROUNDTRIP
360
1D2
  0
DICTIONARY
  5
1D9
330
39
100
AcDbDictionary
280
     1
281
     1
  3
ACAD_XREC_ROUNDTRIP
360
1DA
  0
DICTIONARY
  5
1BD
330
2B
100
AcDbDictionary
280
     1
281
     1
  3
ACAD_XREC_ROUNDTRIP
360
1BE
  0
DICTIONARY
  5
1BF
330
2C
100
AcDbDictionary
280
     1
281
     1
  3
ACAD_XREC_ROUNDTRIP
360
1C0
  0
DICTIONARY
  5
1C1
330
2D
100
AcDbDictionary
280
     1
281
     1
  3
ACAD_XREC_ROUNDTRIP
360
1C2
  0
DICTIONARY
  5
1C3
330
2E
100
AcDbDictionary
280
     1
281
     1
  3
ACAD_XREC_ROUNDTRIP
360
1C4
  0
DICTIONARY
  5
1D7
330
38
100
AcDbDictionary
280
     1
281
     1
  3
ACAD_XREC_ROUNDTRIP
360
1D8
  0
DICTIONARY
  5
1CD
330
33
100
AcDbDictionary
280
     1
281
     1
  3
ACAD_XREC_ROUNDTRIP
360
1CE
  0
DICTIONARY
  5
1D5
330
37
100
AcDbDictionary
280
     1
281
     1
  3
ACAD_XREC_ROUNDTRIP
360
1D6
  0
XRECORD
  5
1C6
102
{ACAD_REACTORS
330
1C5
102
}
330
1C5
100
AcDbXrecord
280
     1
102
RTVSPropertyOp0
 70
     1
102
RTVSPropertyOp1
 70
     1
102
RTVSPropertyOp2
 70
     1
102
RTVSPropertyOp3
 70
     1
102
RTVSPropertyOp4
 70
     1
102
RTVSPropertyOp5
 70
     1
102
RTVSPropertyOp6
 70
     1
102
RTVSPropertyOp7
 70
     1
102
RTVSPropertyOp8
 70
     1
102
RTVSPropertyOp9
 70
     1
102
RTVSPropertyOp10
 70
     1
102
RTVSPropertyOp11
 70
     1
102
RTVSPropertyOp12
 70
     1
102
RTVSPropertyOp13
 70
     1
102
RTVSPropertyOp14
 70
     1
102
RTVSPropertyOp15
 70
     1
102
RTVSPropertyOp16
 70
     1
102
RTVSPropertyOp17
 70
     1
102
RTVSPropertyOp18
 70
     1
102
RTVSPropertyOp19
 70
     1
102
RTVSPropertyOp20
 70
     1
102
RTVSPropertyOp21
 70
     1
102
RTVSPropertyOp22
 70
     1
102
RTVSPropertyOp23
 70
     1
102
RTVSPropertyOp24
 70
     1
102
RTVSPropertyOp25
 70
     1
102
RTVSPropertyOp26
 70
     1
102
RTVSPropertyOp27
 70
     1
102
RTVSPropertyOp28
 70
     1
102
RTVSPropertyOp29
 70
     1
102
RTVSPropertyOp30
 70
     1
102
RTVSPropertyOp31
 70
     1
102
RTVSPropertyOp32
 70
     1
  0
XRECORD
  5
1CA
102
{ACAD_REACTORS
330
1C9
102
}
330
1C9
100
AcDbXrecord
280
     1
102
RTVSPropertyOp0
 70
     1
102
RTVSPropertyOp1
 70
     1
102
RTVSPropertyOp2
 70
     1
102
RTVSPropertyOp3
 70
     1
102
RTVSPropertyOp4
 70
     1
102
RTVSPropertyOp5
 70
     1
102
RTVSPropertyOp6
 70
     1
102
RTVSPropertyOp7
 70
     1
102
RTVSPropertyOp8
 70
     1
102
RTVSPropertyOp9
 70
     1
102
RTVSPropertyOp10
 70
     1
102
RTVSPropertyOp11
 70
     1
102
RTVSPropertyOp12
 70
     1
102
RTVSPropertyOp13
 70
     1
102
RTVSPropertyOp14
 70
     1
102
RTVSPropertyOp15
 70
     1
102
RTVSPropertyOp16
 70
     1
102
RTVSPropertyOp17
 70
     1
102
RTVSPropertyOp18
 70
     1
102
RTVSPropertyOp19
 70
     1
102
RTVSPropertyOp20
 70
     1
102
RTVSPropertyOp21
 70
     1
102
RTVSPropertyOp22
 70
     1
102
RTVSPropertyOp23
 70
     1
102
RTVSPropertyOp24
 70
     1
102
RTVSPropertyOp25
 70
     1
102
RTVSPropertyOp26
 70
     1
102
RTVSPropertyOp27
 70
     1
102
RTVSPropertyOp28
 70
     1
102
RTVSPropertyOp29
 70
     1
102
RTVSPropertyOp30
 70
     1
102
RTVSPropertyOp31
 70
     1
102
RTVSPropertyOp32
 70
     1
  0
XRECORD
  5
1C8
102
{ACAD_REACTORS
330
1C7
102
}
330
1C7
100
AcDbXrecord
280
     1
102
RTVSPropertyOp0
 70
     1
102
RTVSPropertyOp1
 70
     1
102
RTVSPropertyOp2
 70
     1
102
RTVSPropertyOp3
 70
     1
102
RTVSPropertyOp4
 70
     1
102
RTVSPropertyOp5
 70
     1
102
RTVSPropertyOp6
 70
     1
102
RTVSPropertyOp7
 70
     1
102
RTVSPropertyOp8
 70
     1
102
RTVSPropertyOp9
 70
     1
102
RTVSPropertyOp10
 70
     1
102
RTVSPropertyOp11
 70
     1
102
RTVSPropertyOp12
 70
     1
102
RTVSPropertyOp13
 70
     1
102
RTVSPropertyOp14
 70
     1
102
RTVSPropertyOp15
 70
     1
102
RTVSPropertyOp16
 70
     1
102
RTVSPropertyOp17
 70
     1
102
RTVSPropertyOp18
 70
     1
102
RTVSPropertyOp19
 70
     1
102
RTVSPropertyOp20
 70
     1
102
RTVSPropertyOp21
 70
     1
102
RTVSPropertyOp22
 70
     1
102
RTVSPropertyOp23
 70
     1
102
RTVSPropertyOp24
 70
     1
102
RTVSPropertyOp25
 70
     1
102
RTVSPropertyOp26
 70
     1
102
RTVSPropertyOp27
 70
     1
102
RTVSPropertyOp28
 70
     1
102
RTVSPropertyOp29
 70
     1
102
RTVSPropertyOp30
 70
     1
102
RTVSPropertyOp31
 70
     1
102
RTVSPropertyOp32
 70
     1
  0
XRECORD
  5
1CC
102
{ACAD_REACTORS
330
1CB
102
}
330
1CB
100
AcDbXrecord
280
     1
102
RTVSPropertyOp0
 70
     1
102
RTVSPropertyOp1
 70
     1
102
RTVSPropertyOp2
 70
     1
102
RTVSPropertyOp3
 70
     1
102
RTVSPropertyOp4
 70
     1
102
RTVSPropertyOp5
 70
     1
102
RTVSPropertyOp6
 70
     1
102
RTVSPropertyOp7
 70
     1
102
RTVSPropertyOp8
 70
     1
102
RTVSPropertyOp9
 70
     1
102
RTVSPropertyOp10
 70
     1
102
RTVSPropertyOp11
 70
     1
102
RTVSPropertyOp12
 70
     1
102
RTVSPropertyOp13
 70
     1
102
RTVSPropertyOp14
 70
     1
102
RTVSPropertyOp15
 70
     1
102
RTVSPropertyOp16
 70
     1
102
RTVSPropertyOp17
 70
     1
102
RTVSPropertyOp18
 70
     1
102
RTVSPropertyOp19
 70
     1
102
RTVSPropertyOp20
 70
     1
102
RTVSPropertyOp21
 70
     1
102
RTVSPropertyOp22
 70
     1
102
RTVSPropertyOp23
 70
     1
102
RTVSPropertyOp24
 70
     1
102
RTVSPropertyOp25
 70
     1
102
RTVSPropertyOp26
 70
     1
102
RTVSPropertyOp27
 70
     1
102
RTVSPropertyOp28
 70
     1
102
RTVSPropertyOp29
 70
     1
102
RTVSPropertyOp30
 70
     1
102
RTVSPropertyOp31
 70
     1
102
RTVSPropertyOp32
 70
     1
  0
XRECORD
  5
1D4
102
{ACAD_REACTORS
330
1D3
102
}
330
1D3
100
AcDbXrecord
280
     1
102
RTVSPropertyOp0
 70
     1
102
RTVSPropertyOp1
 70
     1
102
RTVSPropertyOp2
 70
     1
102
RTVSPropertyOp3
 70
     1
102
RTVSPropertyOp4
 70
     1
102
RTVSPropertyOp5
 70
     1
102
RTVSPropertyOp6
 70
     1
102
RTVSPropertyOp7
 70
     1
102
RTVSPropertyOp8
 70
     1
102
RTVSPropertyOp9
 70
     1
102
RTVSPropertyOp10
 70
     1
102
RTVSPropertyOp11
 70
     1
102
RTVSPropertyOp12
 70
     1
102
RTVSPropertyOp13
 70
     1
102
RTVSPropertyOp14
 70
     1
102
RTVSPropertyOp15
 70
     1
102
RTVSPropertyOp16
 70
     1
102
RTVSPropertyOp17
 70
     1
102
RTVSPropertyOp18
 70
     1
102
RTVSPropertyOp19
 70
     1
102
RTVSPropertyOp20
 70
     1
102
RTVSPropertyOp21
 70
     1
102
RTVSPropertyOp22
 70
     1
102
RTVSPropertyOp23
 70
     1
102
RTVSPropertyOp24
 70
     1
102
RTVSPropertyOp25
 70
     1
102
RTVSPropertyOp26
 70
     1
102
RTVSPropertyOp27
 70
     1
102
RTVSPropertyOp28
 70
     1
102
RTVSPropertyOp29
 70
     1
102
RTVSPropertyOp30
 70
     1
102
RTVSPropertyOp31
 70
     1
102
RTVSPropertyOp32
 70
     1
  0
XRECORD
  5
1DC
102
{ACAD_REACTORS
330
1DB
102
}
330
1DB
100
AcDbXrecord
280
     1
102
RTVSPropertyOp0
 70
     1
102
RTVSPropertyOp1
 70
     1
102
RTVSPropertyOp2
 70
     1
102
RTVSPropertyOp3
 70
     1
102
RTVSPropertyOp4
 70
     1
102
RTVSPropertyOp5
 70
     1
102
RTVSPropertyOp6
 70
     1
102
RTVSPropertyOp7
 70
     1
102
RTVSPropertyOp8
 70
     1
102
RTVSPropertyOp9
 70
     1
102
RTVSPropertyOp10
 70
     1
102
RTVSPropertyOp11
 70
     1
102
RTVSPropertyOp12
 70
     1
102
RTVSPropertyOp13
 70
     1
102
RTVSPropertyOp14
 70
     1
102
RTVSPropertyOp15
 70
     1
102
RTVSPropertyOp16
 70
     1
102
RTVSPropertyOp17
 70
     1
102
RTVSPropertyOp18
 70
     1
102
RTVSPropertyOp19
 70
     1
102
RTVSPropertyOp20
 70
     1
102
RTVSPropertyOp21
 70
     1
102
RTVSPropertyOp22
 70
     1
102
RTVSPropertyOp23
 70
     1
102
RTVSPropertyOp24
 70
     1
102
RTVSPropertyOp25
 70
     1
102
RTVSPropertyOp26
 70
     1
102
RTVSPropertyOp27
 70
     1
102
RTVSPropertyOp28
 70
     1
102
RTVSPropertyOp29
 70
     1
102
RTVSPropertyOp30
 70
     1
102
RTVSPropertyOp31
 70
     1
102
RTVSPropertyOp32
 70
     1
  0
XRECORD
  5
1D0
102
{ACAD_REACTORS
330
1CF
102
}
330
1CF
100
AcDbXrecord
280
     1
102
RTVSPropertyOp0
 70
     1
102
RTVSPropertyOp1
 70
     1
102
RTVSPropertyOp2
 70
     1
102
RTVSPropertyOp3
 70
     1
102
RTVSPropertyOp4
 70
     1
102
RTVSPropertyOp5
 70
     1
102
RTVSPropertyOp6
 70
     1
102
RTVSPropertyOp7
 70
     1
102
RTVSPropertyOp8
 70
     1
102
RTVSPropertyOp9
 70
     1
102
RTVSPropertyOp10
 70
     1
102
RTVSPropertyOp11
 70
     1
102
RTVSPropertyOp12
 70
     1
102
RTVSPropertyOp13
 70
     1
102
RTVSPropertyOp14
 70
     1
102
RTVSPropertyOp15
 70
     1
102
RTVSPropertyOp16
 70
     1
102
RTVSPropertyOp17
 70
     1
102
RTVSPropertyOp18
 70
     1
102
RTVSPropertyOp19
 70
     1
102
RTVSPropertyOp20
 70
     1
102
RTVSPropertyOp21
 70
     1
102
RTVSPropertyOp22
 70
     1
102
RTVSPropertyOp23
 70
     1
102
RTVSPropertyOp24
 70
     1
102
RTVSPropertyOp25
 70
     1
102
RTVSPropertyOp26
 70
     1
102
RTVSPropertyOp27
 70
     1
102
RTVSPropertyOp28
 70
     1
102
RTVSPropertyOp29
 70
     1
102
RTVSPropertyOp30
 70
     1
102
RTVSPropertyOp31
 70
     1
102
RTVSPropertyOp32
 70
     1
  0
XRECORD
  5
1D2
102
{ACAD_REACTORS
330
1D1
102
}
330
1D1
100
AcDbXrecord
280
     1
102
RTVSPropertyOp0
 70
     1
102
RTVSPropertyOp1
 70
     1
102
RTVSPropertyOp2
 70
     1
102
RTVSPropertyOp3
 70
     1
102
RTVSPropertyOp4
 70
     1
102
RTVSPropertyOp5
 70
     1
102
RTVSPropertyOp6
 70
     1
102
RTVSPropertyOp7
 70
     1
102
RTVSPropertyOp8
 70
     1
102
RTVSPropertyOp9
 70
     1
102
RTVSPropertyOp10
 70
     1
102
RTVSPropertyOp11
 70
     1
102
RTVSPropertyOp12
 70
     1
102
RTVSPropertyOp13
 70
     1
102
RTVSPropertyOp14
 70
     1
102
RTVSPropertyOp15
 70
     1
102
RTVSPropertyOp16
 70
     1
102
RTVSPropertyOp17
 70
     1
102
RTVSPropertyOp18
 70
     1
102
RTVSPropertyOp19
 70
     1
102
RTVSPropertyOp20
 70
     1
102
RTVSPropertyOp21
 70
     1
102
RTVSPropertyOp22
 70
     1
102
RTVSPropertyOp23
 70
     1
102
RTVSPropertyOp24
 70
     1
102
RTVSPropertyOp25
 70
     1
102
RTVSPropertyOp26
 70
     1
102
RTVSPropertyOp27
 70
     1
102
RTVSPropertyOp28
 70
     1
102
RTVSPropertyOp29
 70
     1
102
RTVSPropertyOp30
 70
     1
102
RTVSPropertyOp31
 70
     1
102
RTVSPropertyOp32
 70
     1
  0
XRECORD
  5
1DA
102
{ACAD_REACTORS
330
1D9
102
}
330
1D9
100
AcDbXrecord
280
     1
102
RTVSPropertyOp0
 70
     1
102
RTVSPropertyOp1
 70
     1
102
RTVSPropertyOp2
 70
     1
102
RTVSPropertyOp3
 70
     1
102
RTVSPropertyOp4
 70
     1
102
RTVSPropertyOp5
 70
     1
102
RTVSPropertyOp6
 70
     1
102
RTVSPropertyOp7
 70
     1
102
RTVSPropertyOp8
 70
     1
102
RTVSPropertyOp9
 70
     1
102
RTVSPropertyOp10
 70
     1
102
RTVSPropertyOp11
 70
     1
102
RTVSPropertyOp12
 70
     1
102
RTVSPropertyOp13
 70
     1
102
RTVSPropertyOp14
 70
     1
102
RTVSPropertyOp15
 70
     1
102
RTVSPropertyOp16
 70
     1
102
RTVSPropertyOp17
 70
     1
102
RTVSPropertyOp18
 70
     1
102
RTVSPropertyOp19
 70
     1
102
RTVSPropertyOp20
 70
     1
102
RTVSPropertyOp21
 70
     1
102
RTVSPropertyOp22
 70
     1
102
RTVSPropertyOp23
 70
     1
102
RTVSPropertyOp24
 70
     1
102
RTVSPropertyOp25
 70
     1
102
RTVSPropertyOp26
 70
     1
102
RTVSPropertyOp27
 70
     1
102
RTVSPropertyOp28
 70
     1
102
RTVSPropertyOp29
 70
     1
102
RTVSPropertyOp30
 70
     1
102
RTVSPropertyOp31
 70
     1
102
RTVSPropertyOp32
 70
     1
  0
XRECORD
  5
1BE
102
{ACAD_REACTORS
330
1BD
102
}
330
1BD
100
AcDbXrecord
280
     1
102
RTVSPropertyOp0
 70
     1
102
RTVSPropertyOp1
 70
     1
102
RTVSPropertyOp2
 70
     1
102
RTVSPropertyOp3
 70
     1
102
RTVSPropertyOp4
 70
     1
102
RTVSPropertyOp5
 70
     1
102
RTVSPropertyOp6
 70
     1
102
RTVSPropertyOp7
 70
     1
102
RTVSPropertyOp8
 70
     1
102
RTVSPropertyOp9
 70
     1
102
RTVSPropertyOp10
 70
     1
102
RTVSPropertyOp11
 70
     1
102
RTVSPropertyOp12
 70
     1
102
RTVSPropertyOp13
 70
     1
102
RTVSPropertyOp14
 70
     1
102
RTVSPropertyOp15
 70
     1
102
RTVSPropertyOp16
 70
     1
102
RTVSPropertyOp17
 70
     1
102
RTVSPropertyOp18
 70
     1
102
RTVSPropertyOp19
 70
     1
102
RTVSPropertyOp20
 70
     1
102
RTVSPropertyOp21
 70
     1
102
RTVSPropertyOp22
 70
     1
102
RTVSPropertyOp23
 70
     1
102
RTVSPropertyOp24
 70
     1
102
RTVSPropertyOp25
 70
     1
102
RTVSPropertyOp26
 70
     1
102
RTVSPropertyOp27
 70
     1
102
RTVSPropertyOp28
 70
     1
102
RTVSPropertyOp29
 70
     1
102
RTVSPropertyOp30
 70
     1
102
RTVSPropertyOp31
 70
     1
102
RTVSPropertyOp32
 70
     1
  0
XRECORD
  5
1C0
102
{ACAD_REACTORS
330
1BF
102
}
330
1BF
100
AcDbXrecord
280
     1
102
RTVSPropertyOp0
 70
     1
102
RTVSPropertyOp1
 70
     1
102
RTVSPropertyOp2
 70
     1
102
RTVSPropertyOp3
 70
     1
102
RTVSPropertyOp4
 70
     1
102
RTVSPropertyOp5
 70
     1
102
RTVSPropertyOp6
 70
     1
102
RTVSPropertyOp7
 70
     1
102
RTVSPropertyOp8
 70
     1
102
RTVSPropertyOp9
 70
     1
102
RTVSPropertyOp10
 70
     1
102
RTVSPropertyOp11
 70
     1
102
RTVSPropertyOp12
 70
     1
102
RTVSPropertyOp13
 70
     1
102
RTVSPropertyOp14
 70
     1
102
RTVSPropertyOp15
 70
     1
102
RTVSPropertyOp16
 70
     1
102
RTVSPropertyOp17
 70
     1
102
RTVSPropertyOp18
 70
     1
102
RTVSPropertyOp19
 70
     1
102
RTVSPropertyOp20
 70
     1
102
RTVSPropertyOp21
 70
     1
102
RTVSPropertyOp22
 70
     1
102
RTVSPropertyOp23
 70
     1
102
RTVSPropertyOp24
 70
     1
102
RTVSPropertyOp25
 70
     1
102
RTVSPropertyOp26
 70
     1
102
RTVSPropertyOp27
 70
     1
102
RTVSPropertyOp28
 70
     1
102
RTVSPropertyOp29
 70
     1
102
RTVSPropertyOp30
 70
     1
102
RTVSPropertyOp31
 70
     1
102
RTVSPropertyOp32
 70
     1
  0
XRECORD
  5
1C2
102
{ACAD_REACTORS
330
1C1
102
}
330
1C1
100
AcDbXrecord
280
     1
102
RTVSPropertyOp0
 70
     1
102
RTVSPropertyOp1
 70
     1
102
RTVSPropertyOp2
 70
     1
102
RTVSPropertyOp3
 70
     1
102
RTVSPropertyOp4
 70
     1
102
RTVSPropertyOp5
 70
     1
102
RTVSPropertyOp6
 70
     1
102
RTVSPropertyOp7
 70
     1
102
RTVSPropertyOp8
 70
     1
102
RTVSPropertyOp9
 70
     1
102
RTVSPropertyOp10
 70
     1
102
RTVSPropertyOp11
 70
     1
102
RTVSPropertyOp12
 70
     1
102
RTVSPropertyOp13
 70
     1
102
RTVSPropertyOp14
 70
     1
102
RTVSPropertyOp15
 70
     1
102
RTVSPropertyOp16
 70
     1
102
RTVSPropertyOp17
 70
     1
102
RTVSPropertyOp18
 70
     1
102
RTVSPropertyOp19
 70
     1
102
RTVSPropertyOp20
 70
     1
102
RTVSPropertyOp21
 70
     1
102
RTVSPropertyOp22
 70
     1
102
RTVSPropertyOp23
 70
     1
102
RTVSPropertyOp24
 70
     1
102
RTVSPropertyOp25
 70
     1
102
RTVSPropertyOp26
 70
     1
102
RTVSPropertyOp27
 70
     1
102
RTVSPropertyOp28
 70
     1
102
RTVSPropertyOp29
 70
     1
102
RTVSPropertyOp30
 70
     1
102
RTVSPropertyOp31
 70
     1
102
RTVSPropertyOp32
 70
     1
  0
XRECORD
  5
1C4
102
{ACAD_REACTORS
330
1C3
102
}
330
1C3
100
AcDbXrecord
280
     1
102
RTVSPropertyOp0
 70
     1
102
RTVSPropertyOp1
 70
     1
102
RTVSPropertyOp2
 70
     1
102
RTVSPropertyOp3
 70
     1
102
RTVSPropertyOp4
 70
     1
102
RTVSPropertyOp5
 70
     1
102
RTVSPropertyOp6
 70
     1
102
RTVSPropertyOp7
 70
     1
102
RTVSPropertyOp8
 70
     1
102
RTVSPropertyOp9
 70
     1
102
RTVSPropertyOp10
 70
     1
102
RTVSPropertyOp11
 70
     1
102
RTVSPropertyOp12
 70
     1
102
RTVSPropertyOp13
 70
     1
102
RTVSPropertyOp14
 70
     1
102
RTVSPropertyOp15
 70
     1
102
RTVSPropertyOp16
 70
     1
102
RTVSPropertyOp17
 70
     1
102
RTVSPropertyOp18
 70
     1
102
RTVSPropertyOp19
 70
     1
102
RTVSPropertyOp20
 70
     1
102
RTVSPropertyOp21
 70
     1
102
RTVSPropertyOp22
 70
     1
102
RTVSPropertyOp23
 70
     1
102
RTVSPropertyOp24
 70
     1
102
RTVSPropertyOp25
 70
     1
102
RTVSPropertyOp26
 70
     1
102
RTVSPropertyOp27
 70
     1
102
RTVSPropertyOp28
 70
     1
102
RTVSPropertyOp29
 70
     1
102
RTVSPropertyOp30
 70
     1
102
RTVSPropertyOp31
 70
     1
102
RTVSPropertyOp32
 70
     1
  0
XRECORD
  5
1D8
102
{ACAD_REACTORS
330
1D7
102
}
330
1D7
100
AcDbXrecord
280
     1
102
RTVSPropertyOp0
 70
     1
102
RTVSPropertyOp1
 70
     1
102
RTVSPropertyOp2
 70
     1
102
RTVSPropertyOp3
 70
     1
102
RTVSPropertyOp4
 70
     1
102
RTVSPropertyOp5
 70
     1
102
RTVSPropertyOp6
 70
     1
102
RTVSPropertyOp7
 70
     1
102
RTVSPropertyOp8
 70
     1
102
RTVSPropertyOp9
 70
     1
102
RTVSPropertyOp10
 70
     1
102
RTVSPropertyOp11
 70
     1
102
RTVSPropertyOp12
 70
     1
102
RTVSPropertyOp13
 70
     1
102
RTVSPropertyOp14
 70
     1
102
RTVSPropertyOp15
 70
     1
102
RTVSPropertyOp16
 70
     1
102
RTVSPropertyOp17
 70
     1
102
RTVSPropertyOp18
 70
     1
102
RTVSPropertyOp19
 70
     1
102
RTVSPropertyOp20
 70
     1
102
RTVSPropertyOp21
 70
     1
102
RTVSPropertyOp22
 70
     1
102
RTVSPropertyOp23
 70
     1
102
RTVSPropertyOp24
 70
     1
102
RTVSPropertyOp25
 70
     1
102
RTVSPropertyOp26
 70
     1
102
RTVSPropertyOp27
 70
     1
102
RTVSPropertyOp28
 70
     1
102
RTVSPropertyOp29
 70
     1
102
RTVSPropertyOp30
 70
     1
102
RTVSPropertyOp31
 70
     1
102
RTVSPropertyOp32
 70
     1
  0
XRECORD
  5
1CE
102
{ACAD_REACTORS
330
1CD
102
}
330
1CD
100
AcDbXrecord
280
     1
102
RTVSPropertyOp0
 70
     1
102
RTVSPropertyOp1
 70
     1
102
RTVSPropertyOp2
 70
     1
102
RTVSPropertyOp3
 70
     1
102
RTVSPropertyOp4
 70
     1
102
RTVSPropertyOp5
 70
     1
102
RTVSPropertyOp6
 70
     1
102
RTVSPropertyOp7
 70
     1
102
RTVSPropertyOp8
 70
     1
102
RTVSPropertyOp9
 70
     1
102
RTVSPropertyOp10
 70
     1
102
RTVSPropertyOp11
 70
     1
102
RTVSPropertyOp12
 70
     1
102
RTVSPropertyOp13
 70
     1
102
RTVSPropertyOp14
 70
     1
102
RTVSPropertyOp15
 70
     1
102
RTVSPropertyOp16
 70
     1
102
RTVSPropertyOp17
 70
     1
102
RTVSPropertyOp18
 70
     1
102
RTVSPropertyOp19
 70
     1
102
RTVSPropertyOp20
 70
     1
102
RTVSPropertyOp21
 70
     1
102
RTVSPropertyOp22
 70
     1
102
RTVSPropertyOp23
 70
     1
102
RTVSPropertyOp24
 70
     1
102
RTVSPropertyOp25
 70
     1
102
RTVSPropertyOp26
 70
     1
102
RTVSPropertyOp27
 70
     1
102
RTVSPropertyOp28
 70
     1
102
RTVSPropertyOp29
 70
     1
102
RTVSPropertyOp30
 70
     1
102
RTVSPropertyOp31
 70
     1
102
RTVSPropertyOp32
 70
     1
  0
XRECORD
  5
1D6
102
{ACAD_REACTORS
330
1D5
102
}
330
1D5
100
AcDbXrecord
280
     1
102
RTVSPropertyOp0
 70
     1
102
RTVSPropertyOp1
 70
     1
102
RTVSPropertyOp2
 70
     1
102
RTVSPropertyOp3
 70
     1
102
RTVSPropertyOp4
 70
     1
102
RTVSPropertyOp5
 70
     1
102
RTVSPropertyOp6
 70
     1
102
RTVSPropertyOp7
 70
     1
102
RTVSPropertyOp8
 70
     1
102
RTVSPropertyOp9
 70
     1
102
RTVSPropertyOp10
 70
     1
102
RTVSPropertyOp11
 70
     1
102
RTVSPropertyOp12
 70
     1
102
RTVSPropertyOp13
 70
     1
102
RTVSPropertyOp14
 70
     1
102
RTVSPropertyOp15
 70
     1
102
RTVSPropertyOp16
 70
     1
102
RTVSPropertyOp17
 70
     1
102
RTVSPropertyOp18
 70
     1
102
RTVSPropertyOp19
 70
     1
102
RTVSPropertyOp20
 70
     1
102
RTVSPropertyOp21
 70
     1
102
RTVSPropertyOp22
 70
     1
102
RTVSPropertyOp23
 70
     1
102
RTVSPropertyOp24
 70
     1
102
RTVSPropertyOp25
 70
     1
102
RTVSPropertyOp26
 70
     1
102
RTVSPropertyOp27
 70
     1
102
RTVSPropertyOp28
 70
     1
102
RTVSPropertyOp29
 70
     1
102
RTVSPropertyOp30
 70
     1
102
RTVSPropertyOp31
 70
     1
102
RTVSPropertyOp32
 70
     1
  0
ENDSEC
  0
EOF
